Complete your record collection. Discover artist full discography

The Best Of WoM Italo Raritas 03

The Best Of WoM Italo Raritas 03

• Genre : Music Box, Billboard Charts
• Year : 0
• Label :
• On demand! (album available 128-320kbs)*    

#/by GROVER
Release code: ODI8097 Added on 27-10-2014, 07:37
You want this album? link doesn't work? report us from your account!

Release Info: The Best Of WoM Italo Raritas 03

The Best Of WoM Italo Raritas 03

TITLE "The Best Of WoM Italo Raritas"
PERFORMER "WoM"
FILE "Mixkatalog - WoM The Best Of WoM Italo Raritas 03 FULL CD.mp3" MP3
TRACK 01 AUDIO
TITLE "For Your Love"
PERFORMER "Airplay"
PREGAP 00:00:00
INDEX 01 00:00:00
TRACK 02 AUDIO
TITLE "Turbo Diesel"
PERFORMER "Albert One"
INDEX 01 06:19:02
TRACK 03 AUDIO
TITLE "Duri Duri Baila Baila"
PERFORMER "Click"
INDEX 01 16:03:20
TRACK 04 AUDIO
TITLE "I Call The Blues"
PERFORMER "Cora"
INDEX 01 23:35:69
TRACK 05 AUDIO
TITLE "Go Go Yellow Screen"
PERFORMER "Digital Emotion"
INDEX 01 30:14:26
TRACK 06 AUDIO
TITLE "Like A Buning Star"
PERFORMER "Jessica"
INDEX 01 38:49:05
TRACK 07 AUDIO
TITLE "What Shall We Do With"
PERFORMER "Radio Pirates"
INDEX 01 43:47:67
TRACK 08 AUDIO
TITLE "I Wanna Stop"
PERFORMER "Superlove"
INDEX 01 49:27:54
TRACK 09 AUDIO
TITLE "How Old Are You"
PERFORMER "T Ark"
INDEX 01 54:52:44
TRACK 10 AUDIO
TITLE "Paradise Mi Amor"
PERFORMER "Vanilla"
INDEX 01 61:19:44
TRACK 11 AUDIO
TITLE "Super Disco Mix"
PERFORMER "Juan Antonio Casas"
INDEX 01 67:55:46



Download

#hashtags:

2011, 2012, 2013, 2014, Album, albums, and, Band, best, Blues, Chill, Chillout, Club, Collection, Dance, Disco, Discography, Edition, Flac, from, HDTV, Hits, House, In, Jazz, Live, lossless, Lounge, Love, Music, Of, Original, Rock, Soul, The, VA, Various, Vinyl, Vol