Duran Duran Special-Songbook (2010) [HDTVRemux, 1080i]

Duran Duran Special-Songbook (2010) [HDTVRemux, 1080i]

• Genre : Videoclips, Concerts, Movies
• Year : 0
• Label :
• On demand! (album available 128-320kbs)*    


Release code: ODI3005881
You want this album? link doesn't work? report us from your account!

Release Info: Duran Duran Special-Songbook (2010) [HDTVRemux, 1080i]

Duran Duran Special-Songbook (2010) [HDTVRemux, 1080i]
H264; AVC 1920x1080 (16:9); 25.000 fps; ~12700 kbps | AC-3; 48000 Hz; 384 kbps; 6 ch
Folk / Rock | 01:30:46 | ~ 8.53 Gb

Duran Duran Special-Songbook (2010) [HDTVRemux, 1080i]
Duran Duran Special-Songbook (2010) [HDTVRemux, 1080i]


The video is a recording of Duran Duran's performance for the SkyArts Songbook, a TV programme broadcast. The show was an intimate live event, that showcased the band's musical catalogue and included a rare live performance of "Late Bar".


MediaInfo
ID : 16 (0x10)
Complete name : H:\New UP\ROCK\SOFT POP\VD\Duran Duran Songbook 1080i\DuranDuran_Songbook_1080i.ts
Format : MPEG-TS
File size : 4.73 GiB
Duration : 49mn 14s
Overall bit rate mode : Variable
Overall bit rate : 13.7 Mbps

Video
ID : 513 (0x201)
Menu ID : 3863 (0xF17)
Format : AVC
Format/Info : Advanced Video Codec
Format profile : Main@L4.0
Format settings, CABAC : Yes
Format settings, ReFrames : 4 frames
Format settings, GOP : M=4, N=12
Codec ID : 27
Duration : 49mn 13s
Bit rate : 12.7 Mbps
Width : 1 920 pixels
Height : 1 080 pixels
Display aspect ratio : 16:9
Frame rate : 25.000 fps
Standard : PAL
Color space : YUV
Chroma subsampling : 4:2:0
Bit depth : 8 bits
Scan type : Interlaced
Scan order : Top Field First
Bits/(Pixel*Frame) : 0.245
Stream size : 4.36 GiB (92%)
Color primaries : BT.709
Transfer characteristics : BT.709
Matrix coefficients : BT.709

Audio
ID : 661 (0x295)
Menu ID : 3863 (0xF17)
Format : AC-3
Format/Info : Audio Coding 3
Mode extension : CM (complete main)
Format settings, Endianness : Big
Codec ID : 6
Duration : 49mn 13s
Bit rate mode : Constant
Bit rate : 384 Kbps
Channel(s) : 6 channels
Channel positions : Front: L C R, Side: L R, LFE
Sampling rate : 48.0 KHz
Bit depth : 16 bits
Compression mode : Lossy
Delay relative to video : 88ms
Stream size : 135 MiB (3%)
Language : English
Language, more info : Clean effects

Setlist:

1. Sunrise
2. Planet Earth
3. Late Bar
4. The Chaufeur
5. Rio
6. Skin Trade
7. A View To A Kill
8. Do You Believe In Shame?
9. Ordinary World
10. The Valley


http://uploaded.net/file/9pc7qyvw/DuranDuran_Songbook_1080i.part6.rar
http://uploaded.net/file/p52qec7x/DuranDuran_Songbook_1080i.part5.rar
http://uploaded.net/file/ljt79170/DuranDuran_Songbook_1080i.part4.rar
http://uploaded.net/file/sscp2z9s/DuranDuran_Songbook_1080i.part3.rar
http://uploaded.net/file/1cpe8wf2/DuranDuran_Songbook_1080i.part2.rar
http://uploaded.net/file/9kezqsik/DuranDuran_Songbook_1080i.part1.rar


http://cloudzer.net/file/5oe11dfr/DuranDuran_Songbook_1080i.part3.rar
http://cloudzer.net/file/d7fhh10q/DuranDuran_Songbook_1080i.part2.rar
http://cloudzer.net/file/vpf2qgyn/DuranDuran_Songbook_1080i.part6.rar
http://cloudzer.net/file/p1zcytdv/DuranDuran_Songbook_1080i.part1.rar
http://cloudzer.net/file/rno6rjra/DuranDuran_Songbook_1080i.part4.rar
http://cloudzer.net/file/72j3ctpz/DuranDuran_Songbook_1080i.part5.rar

#tags