« VA - Trance Trip, Vol. 10 (201...
Francesco Napoli – Balla..Ba... »
Silent Circle Live 1999

Silent Circle Live 1999

Videoclips Concerts Movies
• Year : 0
• On demand! (album available 128-320kbs)*    

                              
0


Label

Album Info

Silent Circle Live 1999


Silent Circle Live 1999
Silent Circle Live 1999Silent Circle Live 1999Silent Circle Live 1999Silent Circle Live 1999Silent Circle Live 1999

сэмпл http://www53.zippyshare.com/v/94146685/file.html


01. Intro
02. Touch In the Night / Moonlight Affair
03. One More Night
04. I`m Your Believer
05. 2 Night
06. Stop the Rain In the Night
07. Love Is Just A World
08. Like An Ocean
09. Night Train
10. Solo on a drum ( CC Behrens )
11. Touch In the Night
12. Silent Circle

General
Complete name : D:\Silent Circle -Live 1999.avi
Format : AVI
Format/Info : Audio Video Interleave
Format profile : OpenDML
File size : 2.04 GiB
Duration : 45mn 47s
Overall bit rate : 6 393 Kbps
Writing library : VirtualDub build 32842/release

Video
ID : 0
Format : MPEG-4 Visual
Format profile : Advanced Simple@L5
Format settings, BVOP : 2
Format settings, QPel : No
Format settings, GMC : No warppoints
Format settings, Matrix : Default (H.263)
Muxing mode : Packed bitstream
Codec ID : XVID
Codec ID/Hint : XviD
Duration : 45mn 47s
Bit rate : 4 845 Kbps
Width : 720 pixels
Height : 576 pixels
Display aspect ratio : 5:4
Frame rate : 23.976 fps
Standard : PAL
Color space : YUV
Chroma subsampling : 4:2:0
Bit depth : 8 bits
Scan type : Progressive
Compression mode : Lossy
Bits/(Pixel*Frame) : 0.487
Stream size : 1.55 GiB (76%)
Writing library : XviD 64

Audio
ID : 1
Format : PCM
Format settings, Endianness : Little
Format settings, Sign : Signed
Codec ID : 1
Duration : 45mn 47s
Bit rate mode : Constant
Bit rate : 1 536 Kbps
Channel(s) : 2 channels
Sampling rate : 48.0 KHz
Bit depth : 16 bits
Stream size : 503 MiB (24%)
Interleave, duration : 42 ms (1.00 video frame)
Interleave, preload duration : 500 ms

The album is currently available for download only with a Premium account. To get a premium account, click here



#tags Silent, Circle, Live
The album code is : ODI2159805