« Dj Djalma & Dj Kévin - Sertam...
Deep Purple - The Very Best Of... »
Tino Casal - Único (2006) FullDVD

Tino Casal - Único (2006) FullDVD

Videoclips Concerts Movies
• Year : 0
• On demand! (album available 128-320kbs)*    

                              
0


Label

Album Info

Tino Casal - Único (2006) FullDVD


Tino Casal - Único (2006) FullDVDTino Casal - Único (2006) FullDVDTino Casal - Único (2006) FullDVDTino Casal - Único (2006) FullDVD



Audio: MPEG Audio 48000Hz stereo 256kbps [Mpeg-1]
Video: MPEG2 Video 720x576 (4:3) 25.00fps 7500kbps [Video]


General
Complete name : D:\TINO CASAL - UNICO DVD\VIDEO_TS\VTS_01_1.VOB
Format : MPEG-PS
File size : 1 024 MiB
Duration : 25mn 54s
Overall bit rate : 5 525 Kbps

Video
ID : 224 (0xE0)
Format : MPEG Video
Format version : Version 2
Format profile : Main@Main
Format settings, BVOP : Yes
Format settings, Matrix : Default
Format settings, GOP : M=3, N=12
Duration : 25mn 54s
Bit rate mode : Variable
Bit rate : 5 159 Kbps
Nominal bit rate : 7 500 Kbps
Width : 720 pixels
Height : 576 pixels
Display aspect ratio : 4:3
Frame rate : 25.000 fps
Standard : PAL
Color space : YUV
Chroma subsampling : 4:2:0
Bit depth : 8 bits
Scan type : Interlaced
Scan order : Bottom Field First
Compression mode : Lossy
Bits/(Pixel*Frame) : 0.498
Stream size : 956 MiB (93%)

Audio
ID : 192 (0xC0)
Format : MPEG Audio
Format version : Version 1
Format profile : Layer 2
Duration : 25mn 54s
Bit rate mode : Constant
Bit rate : 256 Kbps
Channel(s) : 2 channels
Sampling rate : 48.0 KHz
Compression mode : Lossy
Stream size : 47.4 MiB (5%)

Menu



Champu De Huevo (Actuacion Tv)
Life On Mars? (Actuación Tv)
Billy Boy (Actuacion Tv)
Stupid Boy (Directo Tv)
Embrujada (Actuacion Tv)
Embrujada (Videoclip)
Etiqueta Negra (Actuación Tv)
Poker Para Un Perdedor (Actuacion Tv)
Los Pájaros (Actuacion Tv)
Legal, Ilegal (Directo Tv)
Embrujada (Directo Tv)
Miedo (Actuacion Tv)
Tigre Bengalí (Actuación Tv)
Teatro De La Oscuridad (Actuacion Tv)
Pánico En El Edén (Actuación Tv)
Bailar Hasta Morir (Actuación Tv)
Mañana (Actuación Tv)
Degeneracion (Actuacion Tv)
Eloise (Actuacion Tv)
Oro Negro (Actuacion Tv)
Eloise (Actuación Tv)
Oro Negro (Videoclip)
Histeria (Actuación Tv)
Tal Como Soy (Killing Me Softly With This Song) (Actúación Tv)

The album is currently available for download only with a Premium account. To get a premium account, click here



#tags
The album code is : ODI195948