Guns N' Roses - Rock in Rio [2011] [720p x 264 HDTV]

Guns N' Roses - Rock in Rio [2011] [720p x 264 HDTV]

• Genre : Videoclips, Concerts, Movies
• Year : 0
• Label :
• On demand! (album available 128-320kbs)*    


Release code: ODI194074
You want this album? link doesn't work? report us from your account!

Release Info: Guns N' Roses - Rock in Rio [2011] [720p x 264 HDTV]

Guns N' Roses - Rock in Rio [2011] [720p x 264 HDTV]
Guns N' Roses - Rock in Rio [2011] [720p x 264 HDTV]


General
Complete name :Guns.N.Roses.Rock.in.Rio.2011.720p.HDTV.x264.mkv
Format : Matroska
Format version : Version 2
File size : 3.85 GiB
Duration : 2h 10mn
Overall bit rate : 4 237 Kbps
Encoded date : UTC 2011-10-26 22:04:46
Writing application : mkvmerge v5.0.1 ('Es ist Sommer') built on Oct 9 2011 11:55:43
Writing library : libebml v1.2.2 + libmatroska v1.3.0

Video
ID : 1
Format : AVC
Format/Info : Advanced Video Codec
Format profile : High@L4.1
Format settings, CABAC : Yes
Format settings, ReFrames : 4 frames
Frame mode : Frame doubling
Muxing mode : Header stripping
Codec ID : V_MPEG4/ISO/AVC
Duration : 2h 10mn
Bit rate mode : Variable
Bit rate : 3 929 Kbps
Maximum bit rate : 40.0 Mbps
Width : 1 280 pixels
Height : 720 pixels
Display aspect ratio : 16:9
Frame rate : 29.970 fps
Color space : YUV
Chroma subsampling : 4:2:0
Bit depth : 8 bits
Scan type : Progressive
Bits/(Pixel*Frame) : 0.142
Stream size : 3.57 GiB (93%)
Language : English
Color primaries : BT.709-5, BT.1361, IEC 61966-2-4, SMPTE RP177
Transfer characteristics : BT.709-5, BT.1361
Matrix coefficients : BT.709-5, BT.1361, IEC 61966-2-4 709, SMPTE RP177

Audio
ID : 2
Format : AC-3
Format/Info : Audio Coding 3
Mode extension : CM (complete main)
Muxing mode : Header stripping
Codec ID : A_AC3
Duration : 2h 10mn
Bit rate mode : Constant
Bit rate : 224 Kbps
Channel(s) : 2 channels
Channel positions : Front: L R
Sampling rate : 48.0 KHz
Bit depth : 16 bits
Compression mode : Lossy
Delay relative to video : 12ms
Stream size : 209 MiB (5%)




Track List:

Setlist:
01 - Chinese Democracy
02 - Welcome To The Jungle
03 - It's So Easy
04 - Mr. Brownstone
05 - Sorry
06 - Richard Fortus Solo
07 - Live and Let Die
08 - Rocket Queen
09 - This I Love
10 - DJ Ashba Solo
11 - Sweet Child O' Mine
12 - Estranged
13 - Better
14 - Dizzy Solo
15 - Street Of Dreams
16 - You Could Be Mine
17 - November Rain
18 - Bumblefoot Solo
19 - Knockin' On Heaven's Door
20 - Nightrain
21 - Patience
22 - Paradise City

http://www.odi-music.net/file/EB48cxs/yoli_GnRknR.part01.rar
http://www.odi-music.net/file/IDW5Xiy/yoli_GnRknR.part02.rar
http://www.odi-music.net/file/m4pKjr9/yoli_GnRknR.part03.rar
http://www.odi-music.net/file/OH2KTBS/yoli_GnRknR.part04.rar
http://www.odi-music.net/file/NrePI7O/yoli_GnRknR.part05.rar
http://www.odi-music.net/file/GjRiFgH/yoli_GnRknR.part06.rar
http://www.odi-music.net/file/BXjoN4B/yoli_GnRknR.part07.rar
http://www.odi-music.net/file/IDW5b78/yoli_GnRknR.part08.rar
http://www.odi-music.net/file/aTJvQ9w/yoli_GnRknR.part09.rar

http://filepost.com/files/87ca844b/yoli_GnRknR.part01.rar
http://filepost.com/files/7mm87667/yoli_GnRknR.part02.rar
http://filepost.com/files/9993455b/yoli_GnRknR.part03.rar
http://filepost.com/files/bd294b56/yoli_GnRknR.part04.rar
http://filepost.com/files/63d92d37/yoli_GnRknR.part05.rar
http://filepost.com/files/c2bdb6b5/yoli_GnRknR.part06.rar
http://filepost.com/files/6mbm78m4/yoli_GnRknR.part07.rar
http://filepost.com/files/bm93fae8/yoli_GnRknR.part08.rar
http://filepost.com/files/5e7e56e9/yoli_GnRknR.part09.rar

#tags