Avril Lavigne - My World (2003) [CD+DVD Edition]

Avril Lavigne - My World (2003) [CD+DVD Edition]

• Genre : Videoclips, Concerts, Movies
• Year : 0
• Label :
• On demand! (album available 128-320kbs)*    


Release code: ODI176363
You want this album? link doesn't work? report us from your account!

Release Info: Avril Lavigne - My World (2003) [CD+DVD Edition]

Avril Lavigne - My World (2003) [CD+DVD Edition]
Avril Lavigne - My World (2003) [CD+DVD Edition]
EAC Rip | FLAC+CUE+LOG > 167 MB | Full Scans | MP3 CBR 320 Kbps > 52 MB
Full DVD9 | PAL | Screen 1,33:1 | Dolby Digital 2.0 & 5.1 Sound | 7,02 GB
Running time: 22:23 mins (CD) / DVD Approximate ~ 128 mins | All Regions

“ My World is the first DVD released by Canadian singer-songwriter Avril Lavigne. The DVD consists of sixteen songs that Lavigne performed on her first live performance tour, the Try To Shut Me Up Tour at HSBC Arena in Buffalo, New York. Most of the tracks are taken from her debut album, Let Go, while two of the songs are covers. It also features one B-side. On the live CD, three songs are covers, with one single. ”



Avril Lavigne - My World (2003) [CD+DVD Edition]

CD Tracklist:

01. Fuel (live, recorded at MTV)
02. Basketcase (live, recorded in Dublin)
03. Unwanted (live, recorded in Dublin)
04. Sk8er Boi (live, recorded in Dublin)
05. Knockin' On Heaven's Door (live, recorded in Dublin)
06. Why (UK B-side of "Complicated")

EAC LOG
Отчёт EAC об извлечении, выполненном 20. августа 2007, 17:47 для диска:
Avril Lavigne / My World Bonus Audio CD

Дисковод: PLEXTOR DVDR PX-750A Adapter: 0 ID: 0
Режим чтения: Достоверный (C2: нет, Точный поток: да, Отключение кэша: да)
Комбинированное смещение чтения/записи: 102
Способность читать области Lead-in и Lead-out : Нет

Выходной формат: Внутренние WAV-операции
44.100 Гц; 16 бит; стерео

Другие параметры:
Заполнение пропущенных сэмплов тишиной : Да
Удаление блоков с тишиной в начале и конце : Нет
Установленный внешний ASPI-интерфейс


Характеристики диапазона извлечения и сообщения об ошибках
Выбранный диапазон
Имя файла E:\Avril Lavigne\my cd+dvd\My_World_DVD+CD\My_World_CD\Avril Lavigne - My World Bonus Audio CD.wav

Пиковый уровень 100.0 %
Качество диапазона 100.0 %
CRC 298ECBFA
Копирование... OK

Ошибок не произошло

Конец отчёта

---------------------

[AccurateRip ID: 00055053-001c7956-34053e06] found.
Track [ CRC ] Status
01 [12aa92f8] (22/34) Accurately ripped
02 [03b225dd] (22/34) Accurately ripped
03 [0c068fa1] (21/33) Accurately ripped
04 [fda0ae02] (22/34) Accurately ripped
05 [11a406a3] (22/34) Accurately ripped
06 [a25ea7fb] (22/34) Accurately ripped
Offsetted by -1261:
01 [58d90347] (02/34) Accurately ripped
02 [90d94d94] (02/34) Accurately ripped
03 [1f699ca9] (02/33) Accurately ripped
04 [80c607f2] (02/34) Accurately ripped
05 [89e7f51a] (02/34) Accurately ripped
06 [6b81d1c1] (02/34) Accurately ripped
Offsetted by 15:
01 [e183a6f3] (04/34) Accurately ripped
02 [7cd70960] (04/34) Accurately ripped
03 [be0a7549] (04/33) Accurately ripped
04 [09ab66b2] (04/34) Accurately ripped
05 [8e1417e6] (04/34) Accurately ripped
06 [af9bf439] (04/34) Accurately ripped
Offsetted by 661:
01 [7a910371] (06/34) Accurately ripped
02 [88c771ae] (06/34) Accurately ripped
03 [2807a059] (06/33) Accurately ripped
04 [98ce7892] (06/34) Accurately ripped
05 [27dd65b4] (06/34) Accurately ripped
06 [c7a79485] (06/34) Accurately ripped

Track Peak [ CRC32 ] [W/O NULL]
-- 99,9 [298ECBFA] [4BC92CC2]
01 98,8 [50102E6B] [33D59264]
02 98,8 [345C5D9B] [CAB652F8]
03 98,8 [3947A10B] [3986BDC2]
04 98,8 [8E4A3775] [1DBD157A]
05 99,9 [B1FA095A] [00A126EB]
06 83,8 [06DE40A9] [2BB65294]



DVD Tracklist:

01. Nobody's Fool
02. Mobile
03. Anything But Ordinary
04. Losing Grip
05. Naked
06. Too Much to Ask
07. I Don't Give
08. Basket Case
09. My World
10. I'm With You
11. Complicated
12. Unwanted
13. Tomorrow
14. Knockin' on Heaven's Door
15. Things I'll Never Say

Bonus features

- Avril's Cut (Behind the Scenes)
- Outtakes
- Photo Gallery
- Complicated (Music video)
- I'm With You (Music video)
- Knockin' on Heaven's Door (Music video)
- Losing Grip (Music video)
- Sk8er Boi (Music video)


http://www.odi-music.net/file/163347191/AV2003CDC.rar
http://www.odi-music.net/file/163347181/AV2003CDL.part1.rar
http://www.odi-music.net/file/163347101/AV2003CDL.part2.rar
http://www.odi-music.net/file/163347031/AV2003CDM.rar
http://www.odi-music.net/file/163347171/AV2003DVD.part01.rar
http://www.odi-music.net/file/163347241/AV2003DVD.part02.rar
http://www.odi-music.net/file/163347051/AV2003DVD.part03.rar
http://www.odi-music.net/file/163347041/AV2003DVD.part04.rar
http://www.odi-music.net/file/163347151/AV2003DVD.part05.rar
http://www.odi-music.net/file/163347161/AV2003DVD.part06.rar
http://www.odi-music.net/file/163347231/AV2003DVD.part07.rar
http://www.odi-music.net/file/163347221/AV2003DVD.part08.rar
http://www.odi-music.net/file/163347141/AV2003DVD.part09.rar
http://www.odi-music.net/file/163347131/AV2003DVD.part10.rar
http://www.odi-music.net/file/163347121/AV2003DVD.part11.rar
http://www.odi-music.net/file/163347111/AV2003DVD.part12.rar
http://www.odi-music.net/file/163347201/AV2003DVD.part13.rar
http://www.odi-music.net/file/163347091/AV2003DVD.part14.rar
http://www.odi-music.net/file/163347071/AV2003DVD.part15.rar
http://www.odi-music.net/file/163347061/AV2003DVD.part16.rar

#tags