Kiss - Live At Rock Am Ring (2010) x264.1080i.HDTV

Kiss - Live At Rock Am Ring (2010) x264.1080i.HDTV

• Genre : Videoclips Concerts Movies
• Year : 0
• Label :
• On demand! (album available 128-320kbs)*    


Release code: ODI176026
You want this album? link doesn't work? report us from your account!

Release Info: Kiss - Live At Rock Am Ring (2010) x264.1080i.HDTV

Kiss - Live At Rock Am Ring (2010) x264.1080i.HDTV

Kiss - Live At Rock Am Ring (2010) x264.1080i.HDTV

Code:

Format : MPEG-TS
Format/Info : Advanced Video Codec
File size : 8.65 GiB
Duration : 1h 54mn
Overall bit rate : 10.9 Mbps
Maximum Overall bit rate : 35.5 Mbps

Video
ID : 4113 (0x1011)
Menu ID : 1 (0x1)
Format : AVC
Format/Info : Advanced Video Codec
Format profile : Main@L4.0
Format settings, CABAC : Yes
Format settings, ReFrames : 4 frames
Format settings, GOP : M=1, N=2
Codec ID : 27
Duration : 1h 54mn
Bit rate mode : Variable
Bit rate : 9 936 Kbps
Maximum bit rate : 40.0 Mbps
Width : 1 920 pixels
Height : 1 080 pixels
Display aspect ratio : 16:9
Frame rate : 25.000 fps
Color space : YUV
Chroma subsampling : 4:2:0
Bit depth : 8 bits
Scan type : Interlaced
Scan order : Top Field First
Bits/(Pixel*Frame) : 0.192
Stream size : 7.92 GiB (92%)
Color primaries : BT.709-5, BT.1361, IEC 61966-2-4, SMPTE RP177
Transfer characteristics : BT.709-5, BT.1361
Matrix coefficients : BT.709-5, BT.1361, IEC 61966-2-4 709, SMPTE RP177

Audio
ID : 4352 (0x1100)
Menu ID : 1 (0x1)
Format : AC-3
Format/Info : Audio Coding 3
Mode extension : CM (complete main)
Codec ID : 129
Duration : 1h 54mn
Bit rate mode : Constant
Bit rate : 384 Kbps
Channel(s) : 6 channels
Channel positions : Front: L C R, Side: L R, LFE
Sampling rate : 48.0 KHz
Bit depth : 16 bits
Compression mode : Lossy
Delay relative to video : 24ms
Stream size : 313 MiB (4%)
Language : English


Kiss - Live At Rock Am Ring (2010) x264.1080i.HDTV

Kiss - Live At Rock Am Ring (2010) x264.1080i.HDTV

Track List:

01. Modern Day Delilah
02. Cold Gin
03. Let Me Go Rock ā€˜Nā€™ Roll
04. Firehouse
05. Say Yeh
06. Deuce
07. Crazy, Crazy Nights
08. Calling Dr. Love
09. Shocke Me
10. I am An Animale
11. 100,000 Years
12. I Love It Loud
13. Love Gun
14. Black Diamond
15. Detroit Rock City
16. Beth (acoustic with Eric Singer on vocals)
17. Lick It Up
18. Shout It Out Loud
19. I Was Made For Love In You
20. God Gave Rock ā€˜Nā€™ Roll To You (Argent cover)
21. Rock And Roll All Night

http://www.odi-music.net/file/112237251/KissRing.part01.rar
http://www.odi-music.net/file/112237261/KissRing.part02.rar
http://www.odi-music.net/file/112237281/KissRing.part03.rar
http://www.odi-music.net/file/112237291/KissRing.part04.rar
http://www.odi-music.net/file/112237301/KissRing.part05.rar
http://www.odi-music.net/file/112237311/KissRing.part06.rar
http://www.odi-music.net/file/112237331/KissRing.part07.rar
http://www.odi-music.net/file/112237341/KissRing.part08.rar
http://www.odi-music.net/file/112237361/KissRing.part09.rar
http://www.odi-music.net/file/112237381/KissRing.part10.rar
http://www.odi-music.net/file/112237401/KissRing.part11.rar
http://www.odi-music.net/file/112237421/KissRing.part12.rar
http://www.odi-music.net/file/112237441/KissRing.part13.rar
http://www.odi-music.net/file/112237451/KissRing.part14.rar
http://www.odi-music.net/file/112237471/KissRing.part15.rar
http://www.odi-music.net/file/112237491/KissRing.part16.rar
http://www.odi-music.net/file/112237511/KissRing.part17.rar
http://www.odi-music.net/file/112237541/KissRing.part18.rar
http://www.odi-music.net/file/112237551/KissRing.part19.rar
http://www.odi-music.net/file/112237571/KissRing.part20.rar
http://www.odi-music.net/file/112237591/KissRing.part21.rar
http://www.odi-music.net/file/112237601/KissRing.part22.rar
http://www.odi-music.net/file/112237611/KissRing.part23.rar

#tags