Scorpions Golden Ballads 2010 Dvd Concert

Scorpions Golden Ballads 2010 Dvd Concert

• Genre : Videoclips Concerts Movies
• Year : 0
• Label :
• On demand! (album available 128-320kbs)*    


Release code: ODI169769
You want this album? link doesn't work? report us from your account!

Release Info: Scorpions Golden Ballads 2010 Dvd Concert

Scorpions Golden Ballads 2010 Dvd Concert

Scorpions Golden Ballads 2010 Dvd Concert

Scorpions Golden Ballads 2010 Dvd Concert

Year 2010
Scorpions Golden ballads
Klaus Meine - Vocals
Rudolf Schenker - Guitars
Matthias Jabs - Guitars
James Kottak - Drums
Pawel Maciwoda - Bass


DVD 9
Genre :Hard Rock, Metal, Heavy Metal
Size :5.19 GB
Video
Format : MPEG Video
Format version : Version 2
Format profile : Main@Main
Format settings, Matrix : Default
Duration : 16mn 0s
Bit rate mode : Constant
Bit rate : 7 810 Kbps
Nominal bit rate : 8 000 Kbps
Width : 720 pixels
Height : 576 pixels
Display aspect ratio : 5/4
Frame rate : 25.000 fps
Standard : PAL
Colorimetry : 4:2:0
Scan type : Interlaced
Scan order : Top Field First
Bits/(Pixel*Frame) : 0.753
Stream size : 894 MiB (92%)
Audio
Format : AC-3
Format/Info : Audio Coding 3
Bit rate mode : Constant
Bit rate : 384 Kbps
Channel(s) : 6 channels
Channel positions : Front: L C R, Surround: L R, LFE
Sampling rate : 48.0 KHz
Video delay : -232ms
Stream size : 44.0 MiB (5%)




http://www.odi-music.net/file/32700517/Scorpions.Golden.Ballads.dvd.part01.rar
http://www.odi-music.net/file/32700519/Scorpions.Golden.Ballads.dvd.part02.rar
http://www.odi-music.net/file/32700521/Scorpions.Golden.Ballads.dvd.part03.rar
http://www.odi-music.net/file/32700523/Scorpions.Golden.Ballads.dvd.part04.rar
http://www.odi-music.net/file/32700525/Scorpions.Golden.Ballads.dvd.part05.rar
http://www.odi-music.net/file/32700527/Scorpions.Golden.Ballads.dvd.part06.rar
http://www.odi-music.net/file/32700529/Scorpions.Golden.Ballads.dvd.part07.rar
http://www.odi-music.net/file/32700531/Scorpions.Golden.Ballads.dvd.part08.rar
http://www.odi-music.net/file/32700533/Scorpions.Golden.Ballads.dvd.part09.rar
http://www.odi-music.net/file/32700535/Scorpions.Golden.Ballads.dvd.part10.rar
http://www.odi-music.net/file/32700537/Scorpions.Golden.Ballads.dvd.part11.rar
http://www.odi-music.net/file/32700539/Scorpions.Golden.Ballads.dvd.part12.rar
http://www.odi-music.net/file/32700541/Scorpions.Golden.Ballads.dvd.part13.rar
http://www.odi-music.net/file/32700543/Scorpions.Golden.Ballads.dvd.part14.rar

#tags