Thomas Anders - Strong (Premium Edition 2CD/DVD)

Thomas Anders - Strong (Premium Edition 2CD/DVD)

• Genre : Videoclips, Concerts, Movies
• Year : 0
• Label :
• On demand! (album available 128-320kbs)*    

Release code: ODI169660
You want this album? link doesn't work? report us from your account!

Release Info: Thomas Anders - Strong (Premium Edition 2CD/DVD)

Thomas Anders - Strong (Premium Edition 2CD/DVD)
EAC | APE-CUE-LOG-Covers | 2CD - 02:05:50 Min | DVD - 08:06 Min | 1.16 Gb
Label: CD Land Media (Russia) | Original Release Date: February 7, 2010
Styles: Pop, Disco, Euro-Pop, Dance-Pop, Club / Dance, Euro-Dance

Thomas Anders - Strong (Premium Edition 2CD/DVD)


The new album is a cult artist. Thomas Anders - former lead singer of the legendary Modern Talking, the group sold 165 million copies and ranks third in Europe by number of CDs sold after the Beatles and ABBA. In duo with Dieter Bohlen, they were released on 12 multi-platinum albums, 14 singles - № 1 in Europe and had won first place in the charts in more than forty countries. After the collapse of the duo, Thomas Anders began a successful solo career. Since 1989, they released nine solo albums have sold many millions of copies.

As a solo artist Thomas Anders has won not only the global popularity, but a particular love of his fans in Russia, where his love for over 25 years. Thomas Anders came to Russia with concerts more than 100 times, it is the only foreign singer, who gave 10 solo concerts in the Kremlin - for the largest and most prestigious venues in Moscow. The result - a new image, a familiar voice, a very modern high-quality material. The disc includes mega-hits - "Stay with Me" and "Why Do You Cry". On both tracks have already been removed clips most fashionable Russian music video, famous for his projects with the stars of Russian show business and labor, affecting high-tech graphics and large-scale surveys - directed by Pavel Khudyakov. To air is also preparing a unique media project - Thomas Anders will lead the new weekly music show on CTC. In the course of 2010 will be a tour of Thomas Anders in support of the album "Strong".



A special edition of the album includes a bonus-CD with remixes of major hits album and a mini-DVD with a trailer, a clip of Pavel Khudyakov the song "Why Do You Cry?" and the history of its creation.


MAIN CD
01. Why Do You Cry?
02. Stay with Me
03. Make You
04. Stop
05. You Will Be Mine
06. Suddenly
07. Music Dance
08. My Angel
09. I'll Be Strong
10. Clear Sign
11. One More Chance
12. I Wanna
13. Sorry, Baby
14. Why Do You Cry?
(Acoustic Piano Version)
Time: 49:23 Min

REMIX CD
01. Why Do You Cry? (Pheromons Project Remix)
02. Why Do You Cry? (Soho Jeff & Black Version)
03. Why Do You Cry? (DJ Nejtrino & DJ Kirill Clash Radio Edit)
04. Why Do You Cry? (DJ Nejtrino & DJ Baur Extended Mix)
05. Why Do You Cry? (Silver & Mesmer Radio Edit)
06. Why Do You Cry? (Silver & Mesmer Drive Mix)
07. Stay with Me (DJ Vini Radio Edit)
08. Stay with Me (DJ Vini Club Version)
09. Stay with Me (G.IL.V Space Remix)
10. Stay with Me (Danny Verde Radio Edit)
11. Stay with Me (Danny Verde Remix)
12. Stay with Me (Danny Verde Dub)
13. Make You (Alex Astero & Evan Sax Radio Mix)
14. Make You (Alex Astero & Evan Sax Club Mix)
15. Make You (Alex Milano Summer Mix)
Time: 76:28 Min

DVD-VIDEO
Why Do You Cry?
01. Trailer
02. Music Video
03. Making Off
Time: 08:06 Min



Exact Audio Copy V0.99 prebeta 5 from 4. May 2009

EAC extraction logfile from 7. November 2010, 12:08

Thomas Anders / Strong (Main CD)

Used drive: SONY CD-RW CRX230ED Adapter: 1 ID: 0

Read mode: Secure
Utilize accurate stream: Yes
Defeat audio cache: Yes
Make use of C2 pointers: No

Read offset correction: 6
Overread into Lead-In and Lead-Out: No
Fill up missing offset samples with silence: Yes
Delete leading and trailing silent blocks: No
Null samples used in CRC calculations: Yes
Used interface: Installed external ASPI interface

Used output format: User Defined Encoder
Selected bitrate: 1024 kBit / s
Quality: High
Add ID3 tag: No
Command line compressor: C: \ Program Files \ Exact Audio Copy \ wapet.exe
Additional command line options:% d-t "cuesheet = @ *. cue" "C: \ Program Files \ Monkey's Audio \ MAC.exe"% s% d-c4000

TOC of the extracted CD

Track | Start | Length | Start sector | End sector
-------------------------------------------------- -------
1 | 0:00.00 | 3:39.35 | 0 | 16459
2 | 3:39.35 | 3:56.49 | 16460 | 34208
3 | 7:36.09 | 3:36.21 | 34209 | 50429
4 | 11:12.30 | 3:09.69 | 50430 | 64673
5 | 14:22.24 | 4:06.43 | 64674 | 83166
6 | 18:28.67 | 3:22.52 | 83167 | 98368
7 | 21:51.44 | 3:23.46 | 98369 | 113639
8 | 25:15.15 | 3:22.17 | 113640 | 128806
9 | 28:37.32 | 3:38.01 | 128807 | 145157
10 | 32:15.33 | 3:27.45 | 145158 | 160727
11 | 35:43.03 | 3:38.17 | 160728 | 177094
12 | 39:21.20 | 2:53.70 | 177095 | 190139
13 | 42:15.15 | 3:18.08 | 190140 | 204997
14 | 45:33.23 | 3:49.32 | 204998 | 222204

Range status and errors

Selected range

Filename J: \ ajiger music collection \ Thomas Anders - Strong (Main CD). Wav

Peak level 99.3%
Range quality 100.0%
Test CRC 6D6DC889
Copy CRC 6D6DC889
Copy OK

No errors occurred

End of status report
=====================================
Exact Audio Copy V0.99 prebeta 5 from 4. May 2009

EAC extraction logfile from 7. November 2010, 13:58

Thomas Anders / Strong (Remix CD)

Used drive: SONY CD-RW CRX230ED Adapter: 1 ID: 0

Read mode: Secure
Utilize accurate stream: Yes
Defeat audio cache: Yes
Make use of C2 pointers: No

Read offset correction: 6
Overread into Lead-In and Lead-Out: No
Fill up missing offset samples with silence: Yes
Delete leading and trailing silent blocks: No
Null samples used in CRC calculations: Yes
Used interface: Installed external ASPI interface

Used output format: User Defined Encoder
Selected bitrate: 1024 kBit / s
Quality: High
Add ID3 tag: No
Command line compressor: C: \ Program Files \ Exact Audio Copy \ wapet.exe
Additional command line options:% d-t "cuesheet = @ *. cue" "C: \ Program Files \ Monkey's Audio \ MAC.exe"% s% d-c4000

TOC of the extracted CD

Track | Start | Length | Start sector | End sector
-------------------------------------------------- -------
1 | 0:00.00 | 5:41.09 | 0 | 25583
2 | 5:41.09 | 6:05.34 | 25584 | 52992
3 | 11:46.43 | 3:37.48 | 52993 | 69315
4 | 15:24.16 | 5:41.02 | 69316 | 94892
5 | 21:05.18 | 3:36.67 | 94893 | 111159
6 | 24:42.10 | 3:41.19 | 111160 | 127753
7 | 28:23.29 | 4:13.02 | 127754 | 146730
8 | 32:36.31 | 6:15.35 | 146731 | 174890
9 | 38:51.66 | 6:28.66 | 174891 | 204056
10 | 45:20.57 | 3:38.49 | 204057 | 220455
11 | 48:59.31 | 6:32.68 | 220456 | 249923
12 | 55:32.24 | 6:32.42 | 249924 | 279365
13 | 62:04.66 | 3:12.74 | 279366 | 293839
14 | 65:17.65 | 5:19.56 | 293840 | 317820
15 | 70:37.46 | 5:50.02 | 317821 | 344072

Range status and errors

Selected range

Filename J: \ ajiger music collection \ Thomas Anders - Strong (Remix CD). Wav

Peak level 100.0%
Range quality 100.0%
Test CRC FA92F95F
Copy CRC FA92F95F
Copy OK

No errors occurred

End of status report


http://www.odi-music.net/file/31326931/TAS_PE_1.rar
http://www.odi-music.net/file/31326933/TAS_PE_2.rar
http://www.odi-music.net/file/31326935/TAS_PE_3.rar
http://www.odi-music.net/file/31326937/TAS_PE_4.rar
http://www.odi-music.net/file/31326939/TAS_PE_5.rar


pass: ajiger

#hashtags: