Complete your record collection. Discover artist full discography

Eurovision Song Contest - 1988

Eurovision Song Contest - 1988

• Genre : Videoclips, Concerts, Movies
• Year : 0
• Label :
• On demand! (album available 128-320kbs)*    

#/by GROVER
Release code: ODI168038 Added on 27-10-2014, 19:33
You want this album? link doesn't work? report us from your account!

Release Info: Eurovision Song Contest - 1988

Eurovision Song Contest - 1988


1. Beathoven "?u og ?eir (Sokrates)" Исландия
2. Tommy Korberg "Stad i ljus" Швеция
3. Boulevard "Nauravat silmat muistetaan" Финляндия
4. Scott Fitzgerald "Go" Великобритания
5. MFO "Sufi" Турция
6. La Decada Prodigiosa "La chica que yo quiero (Made in Spain)" Испания
7. Gerard Joling "Shangri-La" Нидерланды
8. Yardena Arazi "Ben Adam" Израиль
9. Celine Dion "Ne partez pas sans moi" Щвейцария
10. Jump The Gun "Take Him Home" Ирландия
11. Maxi & Chris Garden "Lied fur einen Freund" Германия
12. Wilfried "Lisa Mona Lisa" Австрия
13. Hot Eyes "Ka' du se hva' jeg sa'?" Дания
14. Afroditi Frida "Clown" Греция
15. Karoline Kruger "For var jord" Норвегия
16. Reynaert "Laissez briller le soleil" Бельгия
17. Lara Fabian "Croire" Люксембург
18. Luca Barbarossa "Vivo (Ti scrivo)" Италия
19. Gеrard Lenorman "Chanteur de charme" Франция
20. Dora "Voltarei" Португалия
21. Srebrna Krila "Mangup" Югославия


Audio: MPEG Audio 48000Hz stereo 384kbps [Mpeg-1]
Video: MPEG2 Video 640x480 29.97fps 9000kbps [Video]

General
Complete name : D:\Downloads\Eurovision 1988.mpg
Format : MPEG-PS
File size : 1.34 GiB
Duration : 1h 4mn
Overall bit rate : 2 981 Kbps
Writing library : © 1998-2010 Womble Multimedia, Inc. / MPEG Video Wizard DVD 5.0.0.114 (01/2010) / Aug 21 2010

Video
ID : 224 (0xE0)
Format : MPEG Video
Format version : Version 2
Format profile : Main@Main
Format settings, BVOP : Yes
Format settings, Matrix : Default
Format_Settings_GOP : M=3, N=18
Duration : 1h 4mn
Bit rate mode : Variable
Bit rate : 2 478 Kbps
Nominal bit rate : 9 000 Kbps
Width : 640 pixels
Height : 480 pixels
Display aspect ratio : 4:3
Frame rate : 29.970 fps
Resolution : 8 bits
Colorimetry : 4:2:0
Scan type : Progressive
Bits/(Pixel*Frame) : 0.269
Stream size : 1.12 GiB (83%)
Writing library : © 1998-2010 Womble Multimedia, Inc. / MPEG Video Wizard DVD 5.0.0.114 (01/2010) / Aug 21 2010

Audio
ID : 192 (0xC0)
Format : MPEG Audio
Format version : Version 1
Format profile : Layer 2
Duration : 1h 4mn
Bit rate mode : Constant
Bit rate : 384 Kbps
Channel(s) : 2 channels
Sampling rate : 48.0 KHz
Stream size : 177 MiB (13%)
Size: 1.37 GB ( 3 Parts RAR)


This album(s) is currently available for download only with a Premium account. To get a premium account, click here


#hashtags:

2011, 2012, 2013, 2014, Album, albums, and, Band, best, Blues, Chill, Chillout, Club, Collection, Dance, Disco, Discography, Edition, Flac, from, HDTV, Hits, House, In, Jazz, Live, lossless, Lounge, Love, Music, Of, Original, Rock, Soul, The, VA, Various, Vinyl, Vol