Complete your record collection. Discover artist full discography

Eurovision Song Contest - 1987

Eurovision Song Contest - 1987

• Genre : Videoclips, Concerts, Movies
• Year : 0
• Label :
• On demand! (album available 128-320kbs)*    

#/by GROVER
Release code: ODI167977 Added on 27-10-2014, 19:33
You want this album? link doesn't work? report us from your account!

Release Info: Eurovision Song Contest - 1987

Eurovision Song Contest - 1987
Трэклист:
1 Kate Gulbrandsen - Mitt liv (Норвегия)
2 Datner and Kushnir - Shir habatlanim (Израиль)
3 Gary Lux - Nur noch Gefuhl (Австрия)
4 Halla Margaret - Haegt og hljott (Исландия)
5 Liliane Saint-Pierre - Soldiers of love (Бельгия)
6 Lotta Engberg - Boogaloo (Швеция)
7 Umberto Tozzi and Raf - Gente di mare (Италия)
8 Nevada - Neste barco a vela (Португалия)
9 Patricia Kraus - No estas solo (Испания)
10 Seyyal Tanner and Lokomotif - Sarkim sevgi ustune (Турция)
11 Bang - Stop! (Греция)
12 Marcha - Rechtop in de wind (Нидерланды)
13 Plastic Bertrand - Amour amour (Люксембург)
14 Rikki - Only the light (Великобритания)
15 Christine Minier - Les mots d’amour n’ont pas de dimanche (Франция)
16 Wind - Lass die Sonne in dein Herz (ФРГ)
17 Alexia - Aspro mavro (Кипр)
18 Vicky Rosti - Sata salamaa (Финляндия)
19 Anne-Catherine Herdorf and Bandjo - En lille melodi (Дания)
20 Джонни Логан - Hold me now (Ирландия)
21 Novi Fosili - Ja sam za ples (Югославия)
22 Carole Rich - Moitie moitie (Швейцария)



Video: Xvid 576x432 25.00fps [Stream 00]
Audio: Dolby AC3 48000Hz stereo 256kbps [Stream 01]

General
Complete name : D:\1987 - Brussel - Eurovision Song Contest.avi
Format : AVI
Format/Info : Audio Video Interleave
File size : 1.17 GiB
Duration : 1h 4mn
Overall bit rate : 2 592 Kbps
Writing application : VirtualDubMod 1.5.4.1 (build 2178/release)
Writing library : VirtualDubMod build 2178/release

Video
ID : 0
Format : MPEG-4 Visual
Format profile : Advanced Simple@L5
Format settings, BVOP : Yes
Format settings, QPel : No
Format settings, GMC : No warppoints
Format settings, Matrix : Custom
Codec ID : XVID
Codec ID/Hint : XviD
Duration : 1h 4mn
Bit rate : 2 329 Kbps
Width : 576 pixels
Height : 432 pixels
Display aspect ratio : 4:3
Frame rate : 25.000 fps
Resolution : 8 bits
Colorimetry : 4:2:0
Scan type : Progressive
Bits/(Pixel*Frame) : 0.374
Stream size : 1.05 GiB (90%)
Writing library : XviD 1.2.0SMP (UTC 2006-01-08)

Audio
ID : 1
Format : AC-3
Format/Info : Audio Coding 3
Format_Settings_ModeExtension : CM (complete main)
Codec ID : 2000
Duration : 1h 4mn
Bit rate mode : Constant
Bit rate : 256 Kbps
Channel(s) : 2 channels
Channel positions : Front: L R
Sampling rate : 48.0 KHz
Stream size : 119 MiB (10%)
Alignment : Aligned on interleaves
Interleave, duration : 96 ms (2.40 video frames)
Interleave, preload duration : 96 ms

Size: 1. 20 GB 3 parts RAR

This album(s) is currently available for download only with a Premium account. To get a premium account, click here


#hashtags:

2011, 2012, 2013, 2014, Album, albums, and, Band, best, Blues, Chill, Chillout, Club, Collection, Dance, Disco, Discography, Edition, Flac, from, HDTV, Hits, House, In, Jazz, Live, lossless, Lounge, Love, Music, Of, Original, Rock, Soul, The, VA, Various, Vinyl, Vol