Eurovision Song Contest 1986

Eurovision Song Contest 1986

• Genre : Videoclips, Concerts, Movies
• Year : 0
• Label :
• On demand! (album available 128-320kbs)*    


Release code: ODI167936
You want this album? link doesn't work? report us from your account!

Release Info: Eurovision Song Contest 1986

Eurovision Song Contest 1986

’анЄ«Ёбв:
1. Sherisse Laurence - L’amour de ma vie (‹оЄбҐ¬ЎгаЈ)
2. Doris Dragovic - Zeljo moja (ћЈ®б« ўЁп)
3. Cocktail Chic - Europeennes (”а ­жЁп)
4. Ketil Stokkan - Romeo (Ќ®аўҐЈЁп)
5. Ryder - Runner in the night (‚Ґ«ЁЄ®ЎаЁв ­Ёп)
6. Icy - Gledibankinn (?б« ­¤Ёп)
7. Frizzle Sizzle - Alles heeft ritme (ЌЁ¤Ґа« ­¤л)
8. Klips ve Onlar - Halley (’гажЁп)
9. Cadillac - Valentino (?бЇ ­Ёп)
10. Daniela Simons - Pas pour moi (?ўҐ©ж аЁп)
11. Moti Galadi and Sarai Tzuriel Yavoh yom (?§а Ё«м)
12. Luv Bug You can count on me (?а« ­¤Ёп)
13. Sandra Kim - J’aime la vie (ЃҐ«мЈЁп)
14. Ingrid Peters - Uber die Brucke geh’n (”ђѓ)
15. Elpida - Tora zo (ЉЁЇа)
16. Timna Brauer - Die Zeit ist einsam (ЂўбваЁп)
17. Lasse Holm and Monica Tornell - E' de' det har du kallar karlek (?ўҐжЁп)
18. Lise Haavik and Trax - Du er fuld af logn („ ­Ёп)
19. Kari Kuivalainen - Paiva kahden ihmisen (”Ё­«п­¤Ёп)
20. Dora - Nao sejas mau para mim (Џ®авгЈ «Ёп)

Video: Xvid 624x464 25.00fps [Stream 00]
Audio: Dolby AC3 48000Hz stereo 256kbps [Stream 01]

General
Complete name : D:\Eurovision.Song.Contest.1986.avi
Format : AVI
Format/Info : Audio Video Interleave
File size : 1.17 GiB
Duration : 58mn 27s
Overall bit rate : 2 875 Kbps
Writing application : VirtualDubMod 1.5.4.1 (build 2178/release)
Writing library : VirtualDubMod build 2178/release

Video
ID : 0
Format : MPEG-4 Visual
Format profile : Advanced Simple@L5
Format settings, BVOP : Yes
Format settings, QPel : No
Format settings, GMC : No warppoints
Format settings, Matrix : Custom
Codec ID : XVID
Codec ID/Hint : XviD
Duration : 58mn 27s
Bit rate : 2 612 Kbps
Width : 624 pixels
Height : 464 pixels
Display aspect ratio : 4:3
Frame rate : 25.000 fps
Resolution : 8 bits
Colorimetry : 4:2:0
Scan type : Progressive
Bits/(Pixel*Frame) : 0.361
Stream size : 1.07 GiB (91%)
Writing library : XviD 1.2.0SMP (UTC 2006-01-08)

Audio
ID : 1
Format : AC-3
Format/Info : Audio Coding 3
Format_Settings_ModeExtension : CM (complete main)
Codec ID : 2000
Duration : 58mn 27s
Bit rate mode : Constant
Bit rate : 256 Kbps
Channel(s) : 2 channels
Channel positions : Front: L R
Sampling rate : 48.0 KHz
Stream size : 107 MiB (9%)
Alignment : Aligned on interleaves
Interleave, duration : 96 ms (2.40 video frames)
Interleave, preload duration : 96 ms

Size: 1. 20 GB ( 3 Parts RAR)

This album(s) is currently available for download only with a Premium account. To get a premium account, click here


#tags