Eurovision Song Contest - 1985

Eurovision Song Contest - 1985

• Genre : Videoclips Concerts Movies
• Year : 0
• Label :
• On demand! (album available 128-320kbs)*    


Release code: ODI167935
You want this album? link doesn't work? report us from your account!

Release Info: Eurovision Song Contest - 1985

Eurovision Song Contest - 1985

Tracklist:

1. Maria Christian - Wait until the weekend comes (?а« ­¤Ёп)
2. Sonja Lumme - Elakoon elama (”Ё­«п­¤Ёп)
3. Lia Vishy - To katalava arga (ЉЁЇа)
4. Hot Eyes - Sku' du spor fra no’n („ ­Ёп)
5. Paloma San Basilio - La fiesta termino (?бЇ ­Ёп)
6. Roger Bens - Femme dans ses reves aussi (”а ­жЁп)
7. MFO - Di dai di dai dai (a’sik oldum) (’гажЁп)
8. Linda Lepomme - Laat me nu gaan (ЃҐ«мЈЁп)
9. Adelaide - Penso em ti, eu sei (Џ®авгЈ «Ёп)
10. Wind - Fur alle (”ђѓ)
11. ?§е а Љ®н­ - Ole ole (?§а Ё«м)
12. Al Bano and Romina Power - Magic, oh magic (?в «Ёп)
13. Bobbysocks - La det swinge (Ќ®аўҐЈЁп)
14. Vikki - Love is... (‚Ґ«ЁЄ®ЎаЁв ­Ёп)
15. Mariella Farre and Pino Gasparini - Piano piano (?ўҐ©ж аЁп)
16. Kikki Danielsson - Bra vibrationer (?ўҐжЁп)
17. Gary Lux - Kinder dieser Welt (ЂўбваЁп)
18. Margo, Franck Olivier, Diane Solomon, Ireen Sheer, Malcolm Roberts and Chris Roberts - Children, Kinder, enfants (‹оЄбҐ¬ЎгаЈ)
19. Takis Biniaris - Miazoume (ѓаҐжЁп)



Video: Xvid 640x480 25.00fps [Stream 00]
Audio: Dolby AC3 48000Hz stereo 256kbps [Stream 01]

General
Complete name : D:\1985 Eurovision Song Contest (Slo actuaciones).avi
Format : AVI
Format/Info : Audio Video Interleave
File size : 1.17 GiB
Duration : 55mn 48s
Overall bit rate : 3 007 Kbps
Writing application : VirtualDubMod 1.5.4.1 (build 2178/release)
Writing library : VirtualDubMod build 2178/release

Video
ID : 0
Format : MPEG-4 Visual
Format profile : Advanced Simple@L5
Format settings, BVOP : Yes
Format settings, QPel : No
Format settings, GMC : No warppoints
Format settings, Matrix : Custom
Codec ID : XVID
Codec ID/Hint : XviD
Duration : 55mn 48s
Bit rate : 2 744 Kbps
Width : 640 pixels
Height : 480 pixels
Display aspect ratio : 4:3
Frame rate : 25.000 fps
Resolution : 8 bits
Colorimetry : 4:2:0
Scan type : Progressive
Bits/(Pixel*Frame) : 0.357
Stream size : 1.07 GiB (91%)
Writing library : XviD 1.2.0SMP (UTC 2006-01-08)

Audio
ID : 1
Format : AC-3
Format/Info : Audio Coding 3
Format_Settings_ModeExtension : CM (complete main)
Codec ID : 2000
Duration : 55mn 48s
Bit rate mode : Constant
Bit rate : 256 Kbps
Channel(s) : 2 channels
Channel positions : Front: L R
Sampling rate : 48.0 KHz
Stream size : 102 MiB (9%)
Alignment : Aligned on interleaves
Interleave, duration : 96 ms (2.40 video frames)
Interleave, preload duration : 96 ms
[
Size: 1. 20 Gb ( 3 Parts RAR)

This album(s) is currently available for download only with a Premium account. To get a premium account, click here


#tags