]Eurovision Song Contest - 1984

]Eurovision Song Contest - 1984

• Genre : Videoclips, Concerts, Movies
• Year : 0
• Label :
• On demand! (album available 128-320kbs)*    

Release code: ODI167844
You want this album? link doesn't work? report us from your account!

Release Info: ]Eurovision Song Contest - 1984

]Eurovision Song Contest - 1984

Tracklist:

1. Herrey’s - Diggi-loo diggy-ley (Швеция)
2. Sophie Carle - 100 % d’amour (Люксембург)
3. Annick Thoumazeau - Autant d’amoureux que d'etoiles (Франция)
4. Bravo - Lady, lady (Испания)
5. Dollie de Luxe - Lenge leve livet (Норвегия)
6. Belle and the Devotions - Love games (Великобритания)
7. Andy Paul - Anna Mari-Elena (Кипр)
8. Jacques Zegers - Avanti la vie (Бельгия)
9. Linda Martin - Terminal '3' (Ирландия)
10. Hot Eyes - Det' lige det (Дания)
11. Maribelle - Ik hou van jou (Нидерланды)
12. Vlado and Isolda - Ciao amore (Югославия)
13. Anita - Einfach weg (Австрия)
14. Mary Roos - Aufrecht geh’n (ФРГ)
15. Bes Yil Once, On Yil Sonra - Halay (Турция)
16. Kirka - Hengaillaan (Финляндия)
17. Rainy Day - Welche Farbe hat der Sonnenschein (Швейцария)
18. Alice and Battiato - I treni di Tozeur (Италия)
19. Maria Guinot - Silencio e tanta gente (Португалия)


Video: Xvid 720x544 25.00fps [Stream 00]
Audio: Dolby AC3 48000Hz stereo 256kbps [Stream 01]


General
Complete name : D:\Eurovision 1984 .avi
Format : AVI
Format/Info : Audio Video Interleave
File size : 1.17 GiB
Duration : 54mn 42s
Overall bit rate : 3 069 Kbps
Writing application : VirtualDubMod 1.5.4.1 (build 2178/release)
Writing library : VirtualDubMod build 2178/release

Video
ID : 0
Format : MPEG-4 Visual
Format profile : Advanced Simple@L5
Format settings, BVOP : Yes
Format settings, QPel : No
Format settings, GMC : No warppoints
Format settings, Matrix : Custom
Codec ID : XVID
Codec ID/Hint : XviD
Duration : 54mn 42s
Bit rate : 2 807 Kbps
Width : 720 pixels
Height : 544 pixels
Display aspect ratio : 4:3
Frame rate : 25.000 fps
Resolution : 8 bits
Colorimetry : 4:2:0
Scan type : Progressive
Bits/(Pixel*Frame) : 0.287
Stream size : 1.07 GiB (91%)
Writing library : XviD 1.2.0SMP (UTC 2006-01-08)

Audio
ID : 1
Format : AC-3
Format/Info : Audio Coding 3
Format_Settings_ModeExtension : CM (complete main)
Codec ID : 2000
Duration : 54mn 42s
Bit rate mode : Constant
Bit rate : 256 Kbps
Channel(s) : 2 channels
Channel positions : Front: L R
Sampling rate : 48.0 KHz
Stream size : 100 MiB (8%)
Alignment : Aligned on interleaves
Interleave, duration : 96 ms (2.40 video frames)

Interleave, preload duration : 96 ms[/spoiler]
Size: 1. 20 Gb RAR (3 Parts)

This album(s) is currently available for download only with a Premium account. To get a premium account, click here


#hashtags: