Complete your record collection. Discover artist full discography

Paul McCartney - 2010-06-02 - Washington, DC (DVDfull pro-shot)

Paul McCartney - 2010-06-02 - Washington, DC (DVDfull pro-shot)

• Genre : Videoclips, Concerts, Movies
• Year : 0
• Label :
• On demand! (album available 128-320kbs)*    

#/by GROVER
Release code: ODI162788 Added on 27-10-2014, 19:32
You want this album? link doesn't work? report us from your account!

Release Info: Paul McCartney - 2010-06-02 - Washington, DC (DVDfull pro-shot)

alt
(DVDfull pro-shot)

In Performance At The White House:
Celebrating The Music Of Paul McCartney
The White House - East Room
Washington DC
Taped: June 2, 2010
Aired: July 28, 2010

Lineage: 1080p Analog Cable Broadcast > Pinnacle USB Cable Tuner > PC (MPG File) > TMPGEnc DVD Authoring Works 4 (Cut beginning/end of MPG, audio-gap correction, add chapters and menu, author DVD) > You

From Wikipedia:
The Library of Congress Gershwin Prize for Popular Song is an award given to a composer or performer for their lifetime contributions to popular music. Created in 2007 by the Library of Congress, the prize is named for brothers George Gershwin and Ira Gershwin, whose contributions to popular music included songs such as "I Got Rhythm," "Embraceable You," and "Someone to Watch Over Me," the orchestral pieces Rhapsody in Blue and An American in Paris, and the opera Porgy and Bess. The first recipient of the award was Paul Simon.

Video
ID: 224 (0xE0)
Format: MPEG Video
Format version: Version 2
Format profile: Main@Main
Format settings, BVOP : Yes
Format settings, Matrix : Default
Duration: 1h 24mn
Bit rate mode : Variable
Bit rate: 5 727 Kbps
Nominal bit rate: 8 000 Kbps
Width : 720 pixels
Height: 480 pixels
Display aspect ratio: 16:9
Frame rate: 29.970 fps
Standard: NTSC
Resolution: 8 bits
Colorimetry : 4:2:0
Scan type : Interlaced
Scan order: Top Field First
Bits/(Pixel*Frame): 0.553
Stream size : 3.37 GiB (90%)

Audio
ID: 128 (0x80)
Format: AC-3
Format/Info : Audio Coding 3
Duration: 1h 24mn
Bit rate mode : Constant
Bit rate: 384 Kbps
Channel(s): 6 channels
Channel positions : Front: L C R, Surround: L R, LFE
Sampling rate : 48.0 KHz
Stream size : 232 MiB (6%)

Format: MPEG-PS
File size : 3.75 GiB
Duration: 1h 24mn
Overall bit rate: 6 363 Kbps

01. Introduction
02. Got To Get You Into My Life - Paul McCartney
03. We Can Work It Out - Stevie Wonder*
04. Drive My Car - The Jonas Bros.
05. Jerry Seinfeld
06. Mother Nature's Son/That Would Be Something - Jack White
07. The Long And Winding Road - Faith Hill
08. Blackbird - Herbie Hancock & Corinne Bailey Rae
09. Penny Lane - Elvis Costello
10. For No One - Emmylou Harris
11. Celebrations - Lang Lang
12. Band On The Run - Dave Grohl
13. Ebony And Ivory - Paul McCartney & Stevie Wonder**
14. President Barack Obama
15. Paul McCartney Speech
16. Michelle - Paul McCartney
17. Eleanor Rigby - Paul McCartney
18. Let It Be - Paul McCartney
19. Hey Jude - Paul McCartney
20. Yesterday - Paul McCartney***

*Stevie Wonder was the second recipient of the Gershwin Prize, celebrating with a concert at the White House in 2009.
**Paul McCartney and Stevie Wonder wrote and performed Ebony & Ivory in 1982. The song was number one on the pop charts.
***Taped June 1, 2010 at the Library Of Congress during the official prize ceremony.

::: ::: HOTFILE :::

alt

alt

#hashtags:

2011, 2012, 2013, 2014, Album, albums, and, Band, best, Blues, Chill, Chillout, Club, Collection, Dance, Disco, Discography, Edition, Flac, from, HDTV, Hits, House, In, Jazz, Live, lossless, Lounge, Love, Music, Of, Original, Rock, Soul, The, VA, Various, Vinyl, Vol