MOTГ–RHEAD 1980 Nottingham and 1988 Lausanne (DVDfull pro-shot)

MOTГ–RHEAD 1980 Nottingham and 1988 Lausanne (DVDfull pro-shot)

• Genre : Videoclips Concerts Movies
• Year : 0
• Label :
• On demand! (album available 128-320kbs)*    


Release code: ODI159590
You want this album? link doesn't work? report us from your account!

Release Info: MOTГ–RHEAD 1980 Nottingham and 1988 Lausanne (DVDfull pro-shot)

alt

The "World-Wide-Premiere" first released on TUBE !!!
Another MEGA PROJECT TAGGED BY SNiFFY!!!!!!!!!

*********
MOTГ–RHEAD - (2x / Pro-Shot-Shows) - DVD-9
*********

1980-08-20 - Theatre Royal, Nottingham, UK & Interview with Lemmy

01 Overkill
02 Too Late Too Late
03 Shoot You In The Back
04 Step Down
05 Jailbait
06 Leaving Here
07 Metropolis
08 Train Kept A Rollin'
09 Bomber
10 Motorhead

***

1988-08-31 - Hot Point Festival, Lausanne, Switzerland

01.Built For Speed
02.Deaf Forever
03.Just 'Cos You'Ve Got The Power
04.No Class
05.Orgasmatron
06.Stone Deaf In The U.S.A.
07.Killed By Death
08.Overkill

***

DVD-Project created by SNiFFY
DVD-Source, Menu-Sound, Menu-Picture-Idea,
Bullshit-Talking to myself...
also by SNiFFY.

P.S.: Hello World, feel free to create a DVD-Cover!

...(Germany, May/2010)

***

Complete name : D:DownloadsVTS_01_1.VOB
Format : MPEG-PS
File size : 1 000 MiB
Duration : 16mn 34s
Overall bit rate : 8 434 Kbps
Writing library : encoded by TMPGEnc MPEG Editor Version. 1.0.1.59

Video
ID : 224 (0xE0)
Format : MPEG Video
Format version : Version 2
Format profile : Main@Main
Format settings, BVOP : Yes
Format settings, Matrix : Default
Duration : 16mn 34s
Bit rate mode : Variable
Bit rate : 7 715 Kbps
Nominal bit rate : 7 992 Kbps
Width : 720 pixels
Height : 480 pixels
Display aspect ratio : 4:3
Frame rate : 29.970 fps
Standard : NTSC
Resolution : 8 bits
Colorimetry : 4:2:0
Scan type : Interlaced
Scan order : Top Field First
Bits/(Pixel*Frame) : 0.745
Stream size : 915 MiB (91%)
Writing library : TMPGEnc MPEG Editor 1.0.1.59

Audio
ID : 192 (0xC0)
Format : MPEG Audio
Format version : Version 1
Format profile : Layer 2
Duration : 16mn 34s
Bit rate mode : Constant
Bit rate : 384 Kbps
Channel(s) : 2 channels
Sampling rate : 48.0 KHz
Stream size : 45.5 MiB (5%)

::: RAPIDSHARE ::: MEGAUPLOAD :::

#tags