Jean Michel Jarre - Water For Life (2006) MP3/Flac

Jean Michel Jarre - Water For Life (2006)
XviD, MKV 1280x720 (16:9), 4 964 Kbps, 25.000 fps | AC-3, 6 ch, 448 Kbps
Electronic / Ambient | 02:13:45 | ~ 4.89 Gb

Jean Michel Jarre - Water For Life (2006)
Jean Michel Jarre - Water For Life (2006)

19-12-2006 1:00 pm “Water for Life” was the theme UNESCO Goodwill Ambassador Jean Michel Jarre chose for an exceptional concert among the sand dunes in Merzouga in Morocco on 16 December 2006, organized with the support of the Kingdom of Morocco and held under the auspices of UNESCO.Water-for-Life.jpg
The Modern Arab Orchestra of Casablanca, the Morocco Philharmonic Orchestra and a number of eminent soloists joined Jean Michel Jarre on stage for this unique concert. It was also one of the highlights of the part of the UN Water for Life Decade (2005-2015) and marked the end of the United Nations International Year of Deserts and Desertification.
Using his hallmark state-of-the-art visual and sound technology, the French musician stressed the importance of protecting and properly managing the planet’s limited freshwater resources and halting the advance of desertification: “We want this concert to be a wake up call. We want to make people more aware of just how precious water is and the critical need to look after what we have. If everybody understood just how little water the earth has, or how many people are going without it – and dying as a result – or how much of it is being wasted, we might be able to find better ways of managing and sharing it. The problem of desertification is intimately linked to this situation and also requires urgent action.” Jean Michel Jarre said.
Desertification affects the lives of more than 250 million people and threatens another 1.2 billion people in 110 countries. An estimated 60 million of those affected in sub-Saharan Africa are expected to move towards northern Africa and Europe by 2020, according to the Secretariat of the United Nations Convention to Combat Desertification (UNCCD).
About 6,000 spectators attended the spectacular concert in the Moroccan Sahara, which was also broadcast live across the region by Moroccan public television and to the rest of the world via the internet and on High Defi nition channels.


MediaInfo:

General
Unique ID : 231025170718159994484662055228753777242 (0xADCDD454D3376072BD1B990E1CDF125A)
Complete name : H:\New UP\Electronic\VD\Jean Michel Jarre - Water For Life (Merzouga, Morocco) (2006)\J.M.Jarre_-_Water.For.Life.720p.HDTV.XviD.mkv
Format : Matroska
Format version : Version 1
File size : 4.64 GiB
Duration : 2h 13mn
Overall bit rate : 4 964 Kbps
Encoded date : UTC 2007-11-03 15:50:00
Writing application : mkvmerge v2.0.0 ('After The Rain Has Fallen') built on Jan 13 2007 19:58:56
Writing library : libebml v0.7.7 + libmatroska v0.8.0

Video
ID : 1
Format : MPEG-4 Visual
Format profile : Advanced Simple@L5
Format settings, BVOP : Yes
Format settings, QPel : No
Format settings, GMC : No warppoints
Format settings, Matrix : Default (MPEG)
Codec ID : V_MS/VFW/FOURCC / XVID
Codec ID/Hint : XviD
Duration : 2h 13mn
Bit rate : 4 418 Kbps
Width : 1 280 pixels
Height : 720 pixels
Display aspect ratio : 16:9
Frame rate mode : Constant
Frame rate : 25.000 fps
Color space : YUV
Chroma subsampling : 4:2:0
Bit depth : 8 bits
Scan type : Progressive
Compression mode : Lossy
Bits/(Pixel*Frame) : 0.192
Stream size : 4.13 GiB (89%)
Title : Jean Michel Jarre - Water for Life (Merzouga, Morocco)
Writing library : XviD 1.2.0SMP (UTC 2006-01-08)
Default : Yes
Forced : No

Audio
ID : 2
Format : AC-3
Format/Info : Audio Coding 3
Mode extension : CM (complete main)
Format settings, Endianness : Big
Codec ID : A_AC3
Duration : 2h 13mn
Bit rate mode : Constant
Bit rate : 448 Kbps
Channel(s) : 6 channels
Channel positions : Front: L C R, Side: L R, LFE
Sampling rate : 48.0 KHz
Bit depth : 16 bits
Compression mode : Lossy
Stream size : 429 MiB (9%)
Title : English
Language : English
Default : Yes
Forced : No


Tracklist:

1. "Intro Saturee"
2. "Suite for Flute"
3. "Oxygene 2"
4. "Miss Moon"
5. "Oxygene 7"
6. "Space of Freedom" (originally "March 23")
7. "Chronologie 6"
8. "Millions of Stars"
9. "Oxygene 4"
10. "Education" (originally "Revolution, Revolutions", with new lyrics)
11. "Gagarin" (originally Hey Gagarin)
12. "Light My Sky" (originally "Tout Est Bleu", with new lyrics)
13. "Oxygene 12"
14. "Chronologie 2"
15. "C'est la Vie"
16. "Theremin Memories"
17. "Souvenir of China"
18. "UNESCO Theme" (originally "Eldorado")
19. "Rendez-Vous 4"
20. "Rendez-Vous 2"



http://uploaded.net/file/o6vv9s74/JMJ08WaterForLife_720p.part6.rar
http://uploaded.net/file/vi7gdji8/JMJ08WaterForLife_720p.part5.rar
http://uploaded.net/file/jqe89b6j/JMJ08WaterForLife_720p.part4.rar
http://uploaded.net/file/ueiojc5y/JMJ08WaterForLife_720p.part3.rar
http://uploaded.net/file/7bkqz551/JMJ08WaterForLife_720p.part2.rar
http://uploaded.net/file/r4kxn95q/JMJ08WaterForLife_720p.part1.rar


http://cloudzer.net/file/0zmmevxr/JMJ08WaterForLife_720p.part3.rar
http://cloudzer.net/file/bjgmin21/JMJ08WaterForLife_720p.part2.rar
http://cloudzer.net/file/g88quz1j/JMJ08WaterForLife_720p.part4.rar
http://cloudzer.net/file/uhlmc584/JMJ08WaterForLife_720p.part1.rar
http://cloudzer.net/file/mmihlxmc/JMJ08WaterForLife_720p.part5.rar
http://cloudzer.net/file/q6x3bme6/JMJ08WaterForLife_720p.part6.rar