Katy Perry - Medley - 02.13.11 (The 53rd Annual Grammy Awards) - HD 1080i MP3/Flac

Katy Perry - Medley - 02.13.11 (The 53rd Annual Grammy Awards) - HD 1080i


General
Complete name                    : [HDTV-1080i].Katy Perry - Medley - 02.13.11 (The 53rd Annual Grammy Awards) - VideoMan.mpg
Format                           : MPEG-PS
File size                        : 634 MiB
Duration                         : 5mn 41s
Overall bit rate                 : 15.6 Mbps

Video
ID                               : 224 (0xE0)
Format                           : MPEG Video
Format version                   : Version 2
Format profile                   : Main@High
Format settings, BVOP            : Yes
Format settings, Matrix          : Default
Duration                         : 5mn 41s
Bit rate mode                    : Variable
Bit rate                         : 14.9 Mbps
Nominal bit rate                 : 17.1 Mbps
Width                            : 1 920 pixels
Height                           : 1 080 pixels
Display aspect ratio             : 16:9
Frame rate                       : 29.970 fps
Standard                         : Component
Color space                      : YUV
Chroma subsampling               : 4:2:0
Bit depth                        : 8 bits
Scan type                        : Interlaced
Scan order                       : Top Field First
Bits/(Pixel*Frame)               : 0.239
Stream size                      : 605 MiB (96%)

Audio
ID                               : 128 (0x80)
Format                           : AC-3
Format/Info                      : Audio Coding 3
Mode extension                   : CM (complete main)
Duration                         : 5mn 41s
Bit rate mode                    : Constant
Bit rate                         : 384 Kbps
Channel(s)                       : 6 channels
Channel positions                : Front: L C R, Side: L R, LFE
Sampling rate                    : 48.0 KHz
Bit depth                        : 16 bits
Stream size                      : 15.6 MiB (2%)

Text #1
ID                               : 224 (0xE0)-608-1
Format                           : EIA-608
Muxing mode                      : A/53 / DTVCC Transport
Muxing mode, more info           : Muxed in Video #1
Stream size                      : 0.00 Byte (0%)

Text #2
ID                               : 224 (0xE0)-1
Format                           : EIA-708
Muxing mode                      : A/53 / DTVCC Transport
Muxing mode, more info           : Muxed in Video #1
Stream size                      : 0.00 Byte (0%)


Download:


http://vinylmp3.net/dl/104594047/591df14/Other001.part1.rar.html
http://vinylmp3.net/dl/104595203/d617d3c/Other001.part2.rar.html
http://vinylmp3.net/dl/104595368/9bbac1d/Other001.part3.rar.html

http://www.odi-music.net/file/82650998/Other001.part1.rar
http://www.odi-music.net/file/82651032/Other001.part2.rar
http://www.odi-music.net/file/82650670/Other001.part3.rar

http://www.odi-music.net/file/CJhDXyC/Other001.part1.rar
http://www.odi-music.net/file/7U7NXP2/Other001.part2.rar
http://www.odi-music.net/file/wbShcw9/Other001.part3.rar

http://www.odi-music.net/?d=7KZJFUVU
http://www.odi-music.net/?d=C4191K58
http://www.odi-music.net/?d=OAGA0JKA

Password: Uploaded_by_JubeiMV