MICHAELJACKSON Billie Jean Live Victory Tour '84 BEST QUALITY YOU CAN EVER FIND OF VICTORY TOUR MP3/Flac

MICHAELJACKSON Billie Jean Live Victory Tour '84 BEST QUALITY YOU CAN EVER FIND OF VICTORY TOUR

The Jacksons Victory Tour fue el concierto final del grupo de gira por los Estados Unidos y Canadб en 1984. La gira comenzу el 6 de julio en Kansas City y concluyу el 9 de diciembre en Los Бngeles. La gira consistiу de 55 conciertos a aproximadamente 2 millones de fans. Fue nombrado despuйs de el reciйn publicado del бlbum Victory aunque ninguna de las canciones de ese бlbum se encontraban en la gira del conjunto. La visita al parecer recaudу $75 millones y estableciу un nuevo rйcord luego de la gira mбs grande en cifras brutas. Michael Jackson donу todos sus ingresos ($5 millones) de la visita a tres organizaciones benйficas, entre ellos el TJ Martell Fundaciуn para la Leucemia y la Investigaciуn del Cбncer, a la United Negro College Fund, y el campamento Ronald McDonald para las buenas. (mas)

Billie Jean es una canciуn funk disco del artista estadounidense Michael Jackson. Fue escrita por Jackson y producida por Quincy Jones para el sexto бlbum como solista del cantante, Thriller (1982). Obtuvo el nъmero uno durante 30 semanas en Estados Unidos. Tambiйn fue nъmero 1 en Reino Unido, Australia, Italia, Mйxico y Espaсa. (mas)

MICHAELJACKSON Billie Jean Live Victory Tour '84 BEST QUALITY YOU CAN EVER FIND OF VICTORY TOUR

MICHAELJACKSON Billie Jean Live Victory Tour '84 BEST QUALITY YOU CAN EVER FIND OF VICTORY TOUR

MICHAELJACKSON Billie Jean Live Victory Tour '84 BEST QUALITY YOU CAN EVER FIND OF VICTORY TOUR

MICHAELJACKSON Billie Jean Live Victory Tour '84 BEST QUALITY YOU CAN EVER FIND OF VICTORY TOUR

MICHAELJACKSON Billie Jean Live Victory Tour '84 BEST QUALITY YOU CAN EVER FIND OF VICTORY TOUR

Video
ID : 0
Format : MPEG-4 Visual
Format profile : Advanced Simple@L5
Format settings, BVOP : No
Format settings, QPel : No
Format settings, GMC : No warppoints
Format settings, Matrix : Default (H.263)
Codec ID : XVID
Codec ID/Hint : XviD
Duration : 6mn 30s
Bit rate : 4 425 Kbps
Width : 720 pixels
Height : 536 pixels
Display aspect ratio : 4:3
Frame rate : 29.970 fps
Color space : YUV
Chroma subsampling : 4:2:0
Bit depth : 8 bits
Scan type : Progressive
Bits/(Pixel*Frame) : 0.383
Stream size : 206 MiB (96%)
Writing library : XviD 1.1.2 (UTC 2006-11-01)

Audio
ID : 1
Format : MPEG Audio
Format version : Version 1
Format profile : Layer 3
Codec ID : 55
Codec ID/Hint : MP3
Duration : 6mn 30s
Bit rate mode : Constant
Bit rate : 160 Kbps
Channel(s) : 2 channels
Sampling rate : 44.1 KHz
Stream size : 7.45 MiB (3%)
Alignment : Split accross interleaves
Interleave, duration : 34 ms (1.02 video frame)



http://vinylmp3.net/dl/86334516/ddf1c60/BJ-VT.part1.rar.html
http://vinylmp3.net/dl/86335149/5c75f98/BJ-VT.part2.rar.html
http://vinylmp3.net/dl/86335173/e961266/BJ-VT.part3.rar.html




PASS:_mello_