« Sting - Acustico (2003) DVD5
Talk Talk - Live At Montreux 1... »
Depeche Mode -Tour of the Universe. Live in Barcelona 20/21.11.09 (2010) Super deluxe 4-disc version [2DVD+2CD]

Depeche Mode -Tour of the Universe. Live in Barcelona 20/21.11.09 (2010) Super deluxe 4-disc version [2DVD+2CD]

Videoclips Concerts Movies
• Year : 0
• On demand! (album available 128-320kbs)*    

0


Label

Album Info

Depeche Mode -Tour of the Universe. Live in Barcelona 20/21.11.09 (2010) Super deluxe 4-disc version [2DVD+2CD]
2xCD | EAC | Electronic, Synthpop | FLAC (tracks,cue,log) -> 793 Mb | MP3 @ 320 -> 285 Mb | cover -> 15 Mb | 2:01:26
2xDVD9 | NTSC 16:9 (720x480) VBR | English (Dolby AC3, 6 ch), (LinearPCM, 2 ch) | 4:03:01 | 15.6 Gb
Subtitles (only 'Inside The Universe' ): English, Deutsch, Francais, Italiano, Espanol, Portugues, Japanese, Magyar, Czech

Depeche Mode -Tour of the Universe. Live in Barcelona 20/21.11.09 (2010) Super deluxe 4-disc version [2DVD+2CD]

Playing 102 shows in 40 countries, Depeche Mode's acclaimed Tour Of The Universe saw Dave Gahan, Martin Gore and Andrew 'Fletch' Fletcher performing to over 2.7 million people. 'Tour Of The Universe - Live In Barcelona' contains 21 tracks recorded over two sold out nights at the Palau St Jordi in Barcelona on November 20th and 21st 2009, both shows being highlights of the celebrated tour.Released on Mute, this spectacular DVD release comes with a host of bonus content including four bonus tracks recorded across the two nights, a tour documentary - Inside The Universe - two tracks filmed at tour rehearsals in New York and Anton Corbijn's specially created 'screen films' for seven tracks plus further bonus montages created from the on-stage screens.



CD1:

01. In Chains
02. Wrong
03. Hole To Feed
04. Walking In My Shoes
05. It's No Good
06. A Question Of Time
07. Precious
08. Fly On The Windscreen
09. Jezebel
10. Home


Exact Audio Copy V0.99 prebeta 5 from 4. May 2009

EAC extraction logfile from 7. November 2010, 10:46

Depeche Mode / Tour Of The Universe: Barcelona 20/21.11.09

Used drive : _NEC DVD_RW ND-3520A Adapter: 0 ID: 1

Read mode : Secure
Utilize accurate stream : Yes
Defeat audio cache : Yes
Make use of C2 pointers : No

Read offset correction : 48
Overread into Lead-In and Lead-Out : No
Fill up missing offset samples with silence : Yes
Delete leading and trailing silent blocks : No
Null samples used in CRC calculations : Yes
Used interface : Native Win32 interface for Win NT & 2000
Gap handling : Appended to previous track

Used output format : User Defined Encoder
Selected bitrate : 128 kBit/s
Quality : High
Add ID3 tag : No
Command line compressor : C:\Program Files\Exact Audio Copy\flac.exe
Additional command line options : -8 -V -T "ARTIST=%a" -T "TITLE=%t" -T "ALBUM=%g" -T "DATE=%y" -T "TRACKNUMBER=%n" -T "GENRE=%m" -T "COMMENT=EAC FLAC -8" %s


TOC of the extracted CD

Track | Start | Length | Start sector | End sector
---------------------------------------------------------
1 | 0:00.00 | 8:13.70 | 0 | 37044
2 | 8:13.70 | 3:48.00 | 37045 | 54144
3 | 12:01.70 | 4:10.29 | 54145 | 72923
4 | 16:12.24 | 6:19.26 | 72924 | 101374
5 | 22:31.50 | 5:10.60 | 101375 | 124684
6 | 27:42.35 | 4:36.25 | 124685 | 145409
7 | 32:18.60 | 4:44.60 | 145410 | 166769
8 | 37:03.45 | 5:35.26 | 166770 | 191920
9 | 42:38.71 | 4:47.32 | 191921 | 213477
10 | 47:26.28 | 6:39.16 | 213478 | 243418


Track 1

Filename D:\Downloads\Lossless\Depeche Mode\Depeche Mode - 2010 - Tour Of The Universe- Barcelona 20-21.11.09\CD1\01 - In Chains (Live In Barcelona).wav

Pre-gap length 0:00:02.00

Peak level 96.7 %
Track quality 100.0 %
Test CRC 69849062
Copy CRC 69849062
Track not present in AccurateRip database
Copy OK

Track 2

Filename D:\Downloads\Lossless\Depeche Mode\Depeche Mode - 2010 - Tour Of The Universe- Barcelona 20-21.11.09\CD1\02 - Wrong (Live In Barcelona).wav

Peak level 98.0 %
Track quality 100.0 %
Test CRC 6DE7BA7C
Copy CRC 6DE7BA7C
Track not present in AccurateRip database
Copy OK

Track 3

Filename D:\Downloads\Lossless\Depeche Mode\Depeche Mode - 2010 - Tour Of The Universe- Barcelona 20-21.11.09\CD1\03 - Hole To Feed (Live In Barcelona).wav

Peak level 95.4 %
Track quality 99.9 %
Test CRC 0130295C
Copy CRC 0130295C
Track not present in AccurateRip database
Copy OK

Track 4

Filename D:\Downloads\Lossless\Depeche Mode\Depeche Mode - 2010 - Tour Of The Universe- Barcelona 20-21.11.09\CD1\04 - Walking In My Shoes (Live In Barcelona).wav

Peak level 97.2 %
Track quality 99.9 %
Test CRC 72A4D749
Copy CRC 72A4D749
Track not present in AccurateRip database
Copy OK

Track 5

Filename D:\Downloads\Lossless\Depeche Mode\Depeche Mode - 2010 - Tour Of The Universe- Barcelona 20-21.11.09\CD1\05 - It's No Good (Live In Barcelona).wav

Peak level 96.3 %
Track quality 99.9 %
Test CRC 9752E43F
Copy CRC 9752E43F
Track not present in AccurateRip database
Copy OK

Track 6

Filename D:\Downloads\Lossless\Depeche Mode\Depeche Mode - 2010 - Tour Of The Universe- Barcelona 20-21.11.09\CD1\06 - A Question Of Time (Live In Barcelona).wav

Peak level 97.3 %
Track quality 100.0 %
Test CRC 1BE5F657
Copy CRC 1BE5F657
Track not present in AccurateRip database
Copy OK

Track 7

Filename D:\Downloads\Lossless\Depeche Mode\Depeche Mode - 2010 - Tour Of The Universe- Barcelona 20-21.11.09\CD1\07 - Precious (Live In Barcelona).wav

Peak level 98.4 %
Track quality 100.0 %
Test CRC 8EE6A59A
Copy CRC 8EE6A59A
Track not present in AccurateRip database
Copy OK

Track 8

Filename D:\Downloads\Lossless\Depeche Mode\Depeche Mode - 2010 - Tour Of The Universe- Barcelona 20-21.11.09\CD1\08 - Fly On The Windscreen (Live In Barcelona).wav

Peak level 96.4 %
Track quality 99.9 %
Test CRC 02259159
Copy CRC 02259159
Track not present in AccurateRip database
Copy OK

Track 9

Filename D:\Downloads\Lossless\Depeche Mode\Depeche Mode - 2010 - Tour Of The Universe- Barcelona 20-21.11.09\CD1\09 - Jezebel (Live In Barcelona).wav

Peak level 94.6 %
Track quality 100.0 %
Test CRC 1BEC9BD4
Copy CRC 1BEC9BD4
Track not present in AccurateRip database
Copy OK

Track 10

Filename D:\Downloads\Lossless\Depeche Mode\Depeche Mode - 2010 - Tour Of The Universe- Barcelona 20-21.11.09\CD1\10 - Home (Live In Barcelona).wav

Peak level 96.0 %
Track quality 100.0 %
Test CRC EF2B9337
Copy CRC EF2B9337
Track not present in AccurateRip database
Copy OK


None of the tracks are present in the AccurateRip database

No errors occurred

End of status report


CD2:
01. Come Back
02. Policy Of Truth
03. In Your Room
04. I Feel You
05. Enjoy The Silence
06. Never Let Me Down Again
07. Dressed In Black
08. Stripped
09. Behind The Wheel
10. Personal Jesus
11. Waiting For The Night

Exact Audio Copy V0.99 prebeta 5 from 4. May 2009

EAC extraction logfile from 7. November 2010, 11:30

Depeche Mode / Tour Of The Universe: Barcelona 20/21.11.09

Used drive : _NEC DVD_RW ND-3520A Adapter: 0 ID: 1

Read mode : Secure
Utilize accurate stream : Yes
Defeat audio cache : Yes
Make use of C2 pointers : No

Read offset correction : 48
Overread into Lead-In and Lead-Out : No
Fill up missing offset samples with silence : Yes
Delete leading and trailing silent blocks : No
Null samples used in CRC calculations : Yes
Used interface : Native Win32 interface for Win NT & 2000
Gap handling : Appended to previous track

Used output format : User Defined Encoder
Selected bitrate : 128 kBit/s
Quality : High
Add ID3 tag : No
Command line compressor : C:\Program Files\Exact Audio Copy\flac.exe
Additional command line options : -8 -V -T "ARTIST=%a" -T "TITLE=%t" -T "ALBUM=%g" -T "DATE=%y" -T "TRACKNUMBER=%n" -T "GENRE=%m" -T "COMMENT=EAC FLAC -8" %s


TOC of the extracted CD

Track | Start | Length | Start sector | End sector
---------------------------------------------------------
1 | 0:00.00 | 6:05.09 | 0 | 27383
2 | 6:05.09 | 5:14.05 | 27384 | 50938
3 | 11:19.14 | 5:26.20 | 50939 | 75408
4 | 16:45.34 | 6:04.53 | 75409 | 102761
5 | 22:50.12 | 7:12.41 | 102762 | 135202
6 | 30:02.53 | 8:24.51 | 135203 | 173053
7 | 38:27.29 | 4:09.74 | 173054 | 191802
8 | 42:37.28 | 5:20.30 | 191803 | 215832
9 | 47:57.58 | 5:10.39 | 215833 | 239121
10 | 53:08.22 | 6:33.33 | 239122 | 268629
11 | 59:41.55 | 7:48.20 | 268630 | 303749


Track 1

Filename D:\Downloads\Lossless\Depeche Mode\Depeche Mode - 2010 - Tour Of The Universe- Barcelona 20-21.11.09\CD2\01 - Come Back (Live In Barcelona).wav

Pre-gap length 0:00:02.00

Peak level 97.3 %
Track quality 99.9 %
Test CRC A50BCD31
Copy CRC A50BCD31
Track not present in AccurateRip database
Copy OK

Track 2

Filename D:\Downloads\Lossless\Depeche Mode\Depeche Mode - 2010 - Tour Of The Universe- Barcelona 20-21.11.09\CD2\02 - Policy Of Truth (Live In Barcelona).wav

Peak level 98.1 %
Track quality 100.0 %
Test CRC 44C742E7
Copy CRC 44C742E7
Track not present in AccurateRip database
Copy OK

Track 3

Filename D:\Downloads\Lossless\Depeche Mode\Depeche Mode - 2010 - Tour Of The Universe- Barcelona 20-21.11.09\CD2\03 - In Your Room (Live In Barcelona).wav

Peak level 96.8 %
Track quality 100.0 %
Test CRC 7D9981BE
Copy CRC 7D9981BE
Track not present in AccurateRip database
Copy OK

Track 4

Filename D:\Downloads\Lossless\Depeche Mode\Depeche Mode - 2010 - Tour Of The Universe- Barcelona 20-21.11.09\CD2\04 - I Feel You (Live In Barcelona).wav

Peak level 96.3 %
Track quality 99.9 %
Test CRC 9BA28729
Copy CRC 9BA28729
Track not present in AccurateRip database
Copy OK

Track 5

Filename D:\Downloads\Lossless\Depeche Mode\Depeche Mode - 2010 - Tour Of The Universe- Barcelona 20-21.11.09\CD2\05 - Enjoy The Silence (Live In Barcelona).wav

Peak level 97.5 %
Track quality 100.0 %
Test CRC D974BD5C
Copy CRC D974BD5C
Track not present in AccurateRip database
Copy OK

Track 6

Filename D:\Downloads\Lossless\Depeche Mode\Depeche Mode - 2010 - Tour Of The Universe- Barcelona 20-21.11.09\CD2\06 - Never Let Me Down Again (Live In Barcelona).wav

Peak level 98.3 %
Track quality 100.0 %
Test CRC 5DEBCEFE
Copy CRC 5DEBCEFE
Track not present in AccurateRip database
Copy OK

Track 7

Filename D:\Downloads\Lossless\Depeche Mode\Depeche Mode - 2010 - Tour Of The Universe- Barcelona 20-21.11.09\CD2\07 - Dressed In Black (Live In Barcelona).wav

Peak level 93.7 %
Track quality 100.0 %
Test CRC 5BCB7A82
Copy CRC 5BCB7A82
Track not present in AccurateRip database
Copy OK

Track 8

Filename D:\Downloads\Lossless\Depeche Mode\Depeche Mode - 2010 - Tour Of The Universe- Barcelona 20-21.11.09\CD2\08 - Stripped (Live In Barcelona).wav

Peak level 97.2 %
Track quality 99.9 %
Test CRC D27CFF16
Copy CRC D27CFF16
Track not present in AccurateRip database
Copy OK

Track 9

Filename D:\Downloads\Lossless\Depeche Mode\Depeche Mode - 2010 - Tour Of The Universe- Barcelona 20-21.11.09\CD2\09 - Behind The Wheel (Live In Barcelona).wav

Peak level 96.1 %
Track quality 100.0 %
Test CRC 14B3D996
Copy CRC 14B3D996
Track not present in AccurateRip database
Copy OK

Track 10

Filename D:\Downloads\Lossless\Depeche Mode\Depeche Mode - 2010 - Tour Of The Universe- Barcelona 20-21.11.09\CD2\10 - Personal Jesus (Live In Barcelona).wav

Peak level 96.4 %
Track quality 100.0 %
Test CRC C9223FC1
Copy CRC C9223FC1
Track not present in AccurateRip database
Copy OK

Track 11

Filename D:\Downloads\Lossless\Depeche Mode\Depeche Mode - 2010 - Tour Of The Universe- Barcelona 20-21.11.09\CD2\11 - Waiting For The Night (Live In Barcelona).wav

Peak level 95.0 %
Track quality 100.0 %
Test CRC 9892FBE7
Copy CRC 9892FBE7
Track not present in AccurateRip database
Copy OK


None of the tracks are present in the AccurateRip database

No errors occurred

End of status report




DVD1

1. In Chains
2. Wrong
3. Hole To Feed
4. Walking In My Shoes
5. It's No Good
6. A Question Of Time
7. Precious
8. Fly On The Windscreen
9. Jezebel
10. Home
11. Come Back
12. Policy Of Truth
13. In Your Room
14. I Feel You
15. Enjoy The Silence
16. Never Let Me Down Again
17. Dressed In Black
18. Stripped
19. Behind The Wheel
20. Personal Jesus
21. Waiting For The Night

- Bonus tracks
World In My Eyes (20th)
Sister Of Night (21st)
Miles Away / The Truth Is (20th)
One Caress (20th)

Depeche Mode -Tour of the Universe. Live in Barcelona 20/21.11.09 (2010) Super deluxe 4-disc version [2DVD+2CD]
Depeche Mode -Tour of the Universe. Live in Barcelona 20/21.11.09 (2010) Super deluxe 4-disc version [2DVD+2CD]
Depeche Mode -Tour of the Universe. Live in Barcelona 20/21.11.09 (2010) Super deluxe 4-disc version [2DVD+2CD]
Depeche Mode -Tour of the Universe. Live in Barcelona 20/21.11.09 (2010) Super deluxe 4-disc version [2DVD+2CD]
Depeche Mode -Tour of the Universe. Live in Barcelona 20/21.11.09 (2010) Super deluxe 4-disc version [2DVD+2CD]
Depeche Mode -Tour of the Universe. Live in Barcelona 20/21.11.09 (2010) Super deluxe 4-disc version [2DVD+2CD]



DVD2
-Inside The Universe
Tour documentary with subtitles: English, German, French, Italian, Spanish, Portuguese, Japanese, Hungarian and Czech.

- Tour Of The Universe / Screens
In Chains
Walking In My Shoes
Precious
Come Back
Policy Of Truth
Enjoy The Silence
Personal Jesus

- Tour Of The Universe / Rehearsals
Wrong
Walking In My Shoes

- Bonus tracks
Insight
Hole To Feed
Behind The Wheel
Never Let Me Down Again

- Sounds Of The Universe - Videos
Wrong
Peace
Hole To Feed
Fragile Tension


Depeche Mode -Tour of the Universe. Live in Barcelona 20/21.11.09 (2010) Super deluxe 4-disc version [2DVD+2CD]
Depeche Mode -Tour of the Universe. Live in Barcelona 20/21.11.09 (2010) Super deluxe 4-disc version [2DVD+2CD]
Depeche Mode -Tour of the Universe. Live in Barcelona 20/21.11.09 (2010) Super deluxe 4-disc version [2DVD+2CD]
Depeche Mode -Tour of the Universe. Live in Barcelona 20/21.11.09 (2010) Super deluxe 4-disc version [2DVD+2CD]
Depeche Mode -Tour of the Universe. Live in Barcelona 20/21.11.09 (2010) Super deluxe 4-disc version [2DVD+2CD]




COVER

http://www.odi-music.net/file/31882469/dm_tou10c.rar



MP3

http://www.odi-music.net/file/31882481/dm_totulib10m1.rar
http://www.odi-music.net/file/31882483/dm_totulib10m2.rar



lossless

CD 1

http://www.odi-music.net/file/31882471/DM_TothU10l1h.part1.rar
http://www.odi-music.net/file/31882475/DM_TothU10l1h.part2.rar


CD 2

http://www.odi-music.net/file/31882477/DM_TothU10l2h.part1.rar
http://www.odi-music.net/file/31882479/DM_TothU10l2h.part2.rar




DVD 1

http://www.odi-music.net/file/31882241/DM_TothU10d1h.part01.rar
http://www.odi-music.net/file/31882243/DM_TothU10d1h.part02.rar
http://www.odi-music.net/file/31882245/DM_TothU10d1h.part03.rar
http://www.odi-music.net/file/31882247/DM_TothU10d1h.part04.rar
http://www.odi-music.net/file/31882249/DM_TothU10d1h.part05.rar
http://www.odi-music.net/file/31882251/DM_TothU10d1h.part06.rar
http://www.odi-music.net/file/31882253/DM_TothU10d1h.part07.rar
http://www.odi-music.net/file/31882255/DM_TothU10d1h.part08.rar
http://www.odi-music.net/file/31882257/DM_TothU10d1h.part09.rar
http://www.odi-music.net/file/31882259/DM_TothU10d1h.part10.rar
http://www.odi-music.net/file/31882261/DM_TothU10d1h.part11.rar
http://www.odi-music.net/file/31882263/DM_TothU10d1h.part12.rar
http://www.odi-music.net/file/31882265/DM_TothU10d1h.part13.rar
http://www.odi-music.net/file/31882267/DM_TothU10d1h.part14.rar
http://www.odi-music.net/file/31882269/DM_TothU10d1h.part15.rar
http://www.odi-music.net/file/31882271/DM_TothU10d1h.part16.rar
http://www.odi-music.net/file/31882273/DM_TothU10d1h.part17.rar
http://www.odi-music.net/file/31882275/DM_TothU10d1h.part18.rar
http://www.odi-music.net/file/31882277/DM_TothU10d1h.part19.rar
http://www.odi-music.net/file/31882279/DM_TothU10d1h.part20.rar
http://www.odi-music.net/file/31882281/DM_TothU10d1h.part21.rar
http://www.odi-music.net/file/31882283/DM_TothU10d1h.part22.rar
http://www.odi-music.net/file/31882285/DM_TothU10d1h.part23.rar
http://www.odi-music.net/file/31882287/DM_TothU10d1h.part24.rar
http://www.odi-music.net/file/31882289/DM_TothU10d1h.part25.rar
http://www.odi-music.net/file/31882291/DM_TothU10d1h.part26.rar
http://www.odi-music.net/file/31882293/DM_TothU10d1h.part27.rar
http://www.odi-music.net/file/31882295/DM_TothU10d1h.part28.rar
http://www.odi-music.net/file/31882297/DM_TothU10d1h.part29.rar
http://www.odi-music.net/file/31882299/DM_TothU10d1h.part30.rar
http://www.odi-music.net/file/31882301/DM_TothU10d1h.part31.rar
http://www.odi-music.net/file/31882303/DM_TothU10d1h.part32.rar


DVD 2
http://www.odi-music.net/file/31882305/DM_TothU10d2h.part01.rar
http://www.odi-music.net/file/31882307/DM_TothU10d2h.part02.rar
http://www.odi-music.net/file/31882309/DM_TothU10d2h.part03.rar
http://www.odi-music.net/file/31882311/DM_TothU10d2h.part04.rar
http://www.odi-music.net/file/31882313/DM_TothU10d2h.part05.rar
http://www.odi-music.net/file/31882315/DM_TothU10d2h.part06.rar
http://www.odi-music.net/file/31882317/DM_TothU10d2h.part07.rar
http://www.odi-music.net/file/31882319/DM_TothU10d2h.part08.rar
http://www.odi-music.net/file/31882321/DM_TothU10d2h.part09.rar
http://www.odi-music.net/file/31882323/DM_TothU10d2h.part10.rar
http://www.odi-music.net/file/31882325/DM_TothU10d2h.part11.rar
http://www.odi-music.net/file/31882327/DM_TothU10d2h.part12.rar
http://www.odi-music.net/file/31882329/DM_TothU10d2h.part13.rar
http://www.odi-music.net/file/31882331/DM_TothU10d2h.part14.rar
http://www.odi-music.net/file/31882333/DM_TothU10d2h.part15.rar
http://www.odi-music.net/file/31882335/DM_TothU10d2h.part16.rar
http://www.odi-music.net/file/31882337/DM_TothU10d2h.part17.rar
http://www.odi-music.net/file/31882339/DM_TothU10d2h.part18.rar
http://www.odi-music.net/file/31882341/DM_TothU10d2h.part19.rar
http://www.odi-music.net/file/31882343/DM_TothU10d2h.part20.rar
http://www.odi-music.net/file/31882345/DM_TothU10d2h.part21.rar
http://www.odi-music.net/file/31882347/DM_TothU10d2h.part22.rar
http://www.odi-music.net/file/31882349/DM_TothU10d2h.part23.rar
http://www.odi-music.net/file/31882351/DM_TothU10d2h.part24.rar
http://www.odi-music.net/file/31882353/DM_TothU10d2h.part25.rar
http://www.odi-music.net/file/31882355/DM_TothU10d2h.part26.rar
http://www.odi-music.net/file/31882357/DM_TothU10d2h.part27.rar
http://www.odi-music.net/file/31882359/DM_TothU10d2h.part28.rar
http://www.odi-music.net/file/31882361/DM_TothU10d2h.part29.rar
http://www.odi-music.net/file/31882363/DM_TothU10d2h.part30.rar


#tags
The album code is : ODI169708

Dean James - Can We Talk 1995 | Barclay James Harvest - Best Of | Dire Straits - The New Old Waldorf | Jet | Lisa Lisa - | , popsike , discogs , cdandlp , musicstack Robert Wyatt – Different Every Time 2CD (2014) (Lossless+mp3) John Greaves (with Robert Wyatt) - Songs 1995 Thunder And Lightning - The Ages Will Turn (2016) W.A.S.P. - Live at the Lyceum, London 1984 [VHSRip] Talking Heads - Live in Rome 1980 [TVRip] Stone Sour - Live In Brighton 2010 (2012) [DVDRip] XML error in File: http://www.israbox.life/rss.xml Rupert Holmes "Rainy Night In Georgia" (1980) -Soft Rock- Rupert Holmes "Adventure" (1980) -Westcoast Rock / Soft Rock Rupert Holmes "Rupert Holmes" (1975) -Soft Rock- Lindsey Webster "Back To Your Heart" (2016) -Westcoast Soul- Lindsey Webster "You Change" (2015) -Westcoast Soul- Lindsey Webster "Lindsey Webster" (2013) -Westcoast Jazz / Soft Rock- Lava "Lava" (1980) -Westcoast Jazz- Giuffria "Giuffria" (1984) - Melodic Rock- Anli Sugano - Just Groovin' - Complete LP A Spice Of Ice - I Need Your Lovin' - Complete EP Nightlife Unlimited - I Love The Night In New York City - Complete LP Marva King - Feels Right - Complete LP Voyage - Voyage 3 - Complete LP

You would like to permanently remove ads and unlock benefits?


We display ads sparingly on website to help cover costs without interfering with the browsing experience.
Tired of advertising and pop-ups? Join Now on OdiMusic. Register on OdiMusic allows you to access to the minimum resources, minimum advertising (no pop-ups),
if you choose to subscribe for one of our plans after registration you can acces more than 1.000.000 Albums, Maxi, Cds, Vinyls releases inside! (80% on demand) (requests, informations, images, tracklists, reviews, ask for supports & much more!!!)