V.A. - Festivalbar 1990 ( part 2 italy) MP3/Flac

V.A. - Festivalbar 1990 ( part 2 italy)

V.A. - Festivalbar 1990 ( part 2 italy)

V.A. - Festivalbar 1990 ( part 2 italy)
tullio de piscopo - jasata o
nick kamen - looking for good diving
steve rogers band - hey man
snap - oooops up
nino - scrivimi
mietta - piccolissimi segreti
marco masini - ci vorrebbe il mare
scialpi - II grande fiume
jason donovan - hang on to your love
katie and carole - say it to your brother
twenty for seven - i cant stand it
raccini - soto questo sole
black box - everybody
papa winnie - brothers and sisters


Format : MPEG-TS
File size : 3.81 GiB
Duration : 1h 10mn
Overall bit rate : 7 785 Kbps
Video
ID : 514 (0x202)
Menu ID : 3 (0x3)
Format : MPEG Video
Format version : Version 2
Format profile : Main@Main
Format settings, BVOP : Yes
Format settings, Matrix : Default
Format settings, GOP : M=3, N=12
Codec ID : 2
Duration : 1h 10mn
Bit rate mode : Variable
Bit rate : 7 012 Kbps
Nominal bit rate : 10 000 Kbps
Width : 704 pixels
Height : 576 pixels
Display aspect ratio : 4:3
ActiveFormatDescription : Full frame 16:9 image
Frame rate : 25.000 fps
Standard : PAL
Color space : YUV
Chroma subsampling : 4:2:0
Bit depth : 8 bits
Scan type : Interlaced
Scan order : Top Field First
Bits/(Pixel*Frame) : 0.692
Stream size : 3.43 GiB (90%)
Audio #1
ID : 670 (0x29E)
Menu ID : 3 (0x3)
Format : MPEG Audio
Format version : Version 1
Format profile : Layer 2
Codec ID : 4
Duration : 1h 10mn
Bit rate mode : Constant
Bit rate : 192 Kbps
Channel(s) : 2 channels
Sampling rate : 48.0 KHz
Video delay : -560ms
Stream size : 96.2 MiB (2%)
Language : Italian
Audio #2
ID : 671 (0x29F)
Menu ID : 3 (0x3)
Format : MPEG Audio
Format version : Version 1
Format profile : Layer 2
Codec ID : 4
Duration : 1h 10mn
Bit rate mode : Constant
Bit rate : 192 Kbps
Channel(s) : 2 channels
Sampling rate : 48.0 KHz
Video delay : -724ms
Stream size : 96.2 MiB (2%)


Folder link:
http://www.odi-music.net/list/fH2mVtq


OR

http://www.odi-music.net/file/3q57mFD
http://www.odi-music.net/file/z347KAU
http://www.odi-music.net/file/ac29Rzk
http://www.odi-music.net/file/nSsYPwX
http://www.odi-music.net/file/vMz4jXg
http://www.odi-music.net/file/fFzE3vg
http://www.odi-music.net/file/d2SDgk3
http://www.odi-music.net/file/TvhxCR3
http://www.odi-music.net/file/kChc7YV
http://www.odi-music.net/file/keKqqbu
http://www.odi-music.net/file/ftD4CpV
http://www.odi-music.net/file/cpkamup
http://www.odi-music.net/file/ss5YAqZ
http://www.odi-music.net/file/bRqp74M
http://www.odi-music.net/file/StPrw9E
http://www.odi-music.net/file/JxWDFz9
http://www.odi-music.net/file/mcM6KSk
http://www.odi-music.net/file/C6Vy8m8
http://www.odi-music.net/file/9MJgnpt
http://www.odi-music.net/file/rN6KcVR
http://www.odi-music.net/file/tSXAYx9
http://www.odi-music.net/file/HNBSKaC
http://www.odi-music.net/file/P5NrDuh
http://www.odi-music.net/file/VNRPNC9
http://www.odi-music.net/file/J98kHgZ
http://www.odi-music.net/file/tBDKjZh
http://www.odi-music.net/file/PDF9gnP
http://www.odi-music.net/file/8kyx4sy
http://www.odi-music.net/file/Rj7dYRC
http://www.odi-music.net/file/YR55nqA
http://www.odi-music.net/file/DZ9ukzn
http://www.odi-music.net/file/pWfs48G
http://www.odi-music.net/file/7jSTbF2
http://www.odi-music.net/file/Dgem9yJ
http://www.odi-music.net/file/HezdJBY
http://www.odi-music.net/file/dxH6HsV
http://www.odi-music.net/file/KGJGuBV
http://www.odi-music.net/file/Q5sXJma
http://www.odi-music.net/file/CxfySV9