« Six in the Mix (The Final Vers...
VA – Beach Club Malibu Ibiza... »
Eurovision Song Contest - 1990

Eurovision Song Contest - 1990

Videoclips Concerts Movies
• Year : 0
• On demand! (album available 128-320kbs)*    

0


Label

Album Info

Eurovision Song Contest - 1990

1. Azucar Moreno "Bandido" Испания
2. Christos Callow & Wave "Horis Skopo" Греция
3. Philippe Lafontaine "Macedomienne" Франция
4. Kayahan "Gozlerinin Hapsindeyim" Турция
5. Maywood "Ik wil alles met je delen" Голландия
6. Celine Carzo "Quand je te reve" Люксембург
7. Emma "Give a Little Love Back to the World" Великобритания
8. Stjornin "Eitt lag enn" Исландия
9. Ketil Stokkan "Brandenburger Tor" Норвегия
10. Rita Kleinstein "Shara Barkhovot" Израиль
11. Lonnie Devantier "Hallo Hallo" Дания
12. Egon Egemann "Musik klingt in die Welt hinaus" Германия
13. Chris Kempers
& Daniel Kovac "Frei zu leben" Германия
14. Joelle Ursull "White and Black Blues" Франция
15. Tajci "Hajde da ludujemo" Югославия
16. Nucha "Ha sempre alguem" Португалия
17. Liam Reilly "Somewhere In Europe" Ирландия
18. Edin-Adahl "Som en vind" Швеция
19. Toto Cutugno "Insieme: 1992" Италия
20. Simone "Keine Mauern mehr" Австрия
21. Haris Anastasiou "Milas Poli" Греция
22. Beat "Fri?" Финляндия



Audio: Dolby AC3 48000Hz 6ch 448kbps [AC-3]
Video: MPEG2 Video 640x480 29.97fps 9000kbps [Video]

General
Complete name : D:\Eurovision 1990.mpg
Format : MPEG-PS
File size : 2.00 GiB
Duration : 1h 6mn
Overall bit rate : 4 285 Kbps
Writing library : © 1998-2010 Womble Multimedia, Inc. / MPEG Video Wizard DVD 5.0.0.114 (01/2010) / Aug 21 2010

Video
ID : 224 (0xE0)
Format : MPEG Video
Format version : Version 2
Format profile : Main@Main
Format settings, BVOP : Yes
Format settings, Matrix : Default
Format_Settings_GOP : M=3, N=18
Duration : 1h 6mn
Bit rate mode : Variable
Bit rate : 3 667 Kbps
Nominal bit rate : 9 000 Kbps
Width : 640 pixels
Height : 480 pixels
Display aspect ratio : 4:3
Frame rate : 29.970 fps
Resolution : 8 bits
Colorimetry : 4:2:0
Scan type : Progressive
Bits/(Pixel*Frame) : 0.398
Stream size : 1.71 GiB (86%)
Writing library : © 1998-2010 Womble Multimedia, Inc. / MPEG Video Wizard DVD 5.0.0.114 (01/2010) / Aug 21 2010

Audio
ID : 128 (0x80)
Format : AC-3
Format/Info : Audio Coding 3
Format_Settings_ModeExtension : CM (complete main)
Duration : 1h 6mn
Bit rate mode : Constant
Bit rate : 448 Kbps
Channel(s) : 2 channels
Channel positions : Front: L R
Sampling rate : 48.0 KHz
Stream size : 214 MiB (10%)

Size: 2 GB ( 5 Parts RAR)

The album is currently available for download only with a Premium account. To get a premium account, click here



#tags
The album code is : ODI168106

Ehab Tawfik - Ahla Minhom (2007) 224kbps Arabic | Aisha And | VA - Putumayo Presents Native America (2014) Lossless | Black-Out 1 | Spoons – | , popsike , discogs , cdandlp , musicstack The Dean Ween Group - The Deaner Album (2016) Умер бывший барабанщик CIRCLE II CIRCLE, WITHERFALL, INTO ETERNITY Koan - Condemned (2016) Hildebrandt – Les animals (2016) Lightnin' Rod & The Thunderbolts - Guilty Of The Blues 2014 Tony Wright - Walnut Dash (2016) Marva King - Feels Right - Complete LP Voyage - Voyage 3 - Complete LP Jean Adebambo - Feelings - Complete LP Bobby King & Terry Evans - Live And Let Live - Complete LP Sam Fan Thomas - Makassi - Complete LP

You would like to permanently remove ads and unlock benefits?


We display ads sparingly on website to help cover costs without interfering with the browsing experience.
Tired of advertising and pop-ups? Join Now on OdiMusic. Register on OdiMusic allows you to access to the minimum resources, minimum advertising (no pop-ups),
if you choose to subscribe for one of our plans after registration you can acces more than 1.000.000 Albums, Maxi, Cds, Vinyls releases inside! (80% on demand) (requests, informations, images, tracklists, reviews, ask for supports & much more!!!)