« Eurovision Song Contest - 1988
Israel Kamakawiwo'ole - Facing... »
Eurovision Song Contest - 1989

Eurovision Song Contest - 1989

Videoclips Concerts Movies
• Year : 0
• On demand! (album available 128-320kbs)*    

0


Label

Album Info

Eurovision Song Contest - 1989

Трэклист:
1 Anna Oxa and Fausto Leali - Avrei voluto (Италия)
2 Gili & Galit - Derech ha’melech (Израиль)
3 Kiev Connolly and the Missing Passengers - The real me (Ирландия)
4 Justine Pelmelay - Blijf zoals je bent (Нидерланды)
5 Pan - Bana bana (Турция)
6 Ingeborg - Door de wind (Бельгия)
7 Live Report - Why do I always get it wrong (Великобритания)
8 Britt Synnove Johansen - Venners naerhet (Норвегия)
9 Da Vinci - Conquistador (Португалия)
10 Tommy Nilsson - En dag (Швеция)
11 Park Cafe - Monsieur (Люксембург)
12 Birthe Kjaer - Vi maler byen rod (Дания)
13 Thomas Forstner - Nur ein Lied (Австрия)
14 Anneli Saaristo - La dolce vita (Финляндия)
15 Nathalie Paque - J’ai vole la vie (Франция)
16 Nina - Nacida para amar (Испания)
17 Fanny Polymeri and Yiannis Savvidakis - Apopse as vrethoume (Кипр)
18 Furbaz - Viver senza tei (Швейцария)
19 Marianna - To diko sou asteri (Греция)
20 Daniel Agust Haraldsson pao sem enginn ser (Исландия)
21 Nino de Angelo - Flieger (ФРГ)
22 Riva - Rock me (Югославия)

Video: Xvid 624x464 25.00fps [Stream 00]
Audio: Dolby AC3 48000Hz stereo 256kbps [Stream 01]

General
Complete name                    : D:\1989 Festival de Eurovision (Solo actuaciones).avi
Format                           : AVI
Format/Info                      : Audio Video Interleave
File size                        : 1.17 GiB
Duration                         : 1h 4mn
Overall bit rate                 : 2 589 Kbps
Writing application              : VirtualDubMod 1.5.4.1 (build 2178/release)
Writing library                  : VirtualDubMod build 2178/release

Video
ID                               : 0
Format                           : MPEG-4 Visual
Format profile                   : Advanced Simple@L5
Format settings, BVOP            : Yes
Format settings, QPel            : No
Format settings, GMC             : No warppoints
Format settings, Matrix          : Custom
Codec ID                         : XVID
Codec ID/Hint                    : XviD
Duration                         : 1h 4mn
Bit rate                         : 2 326 Kbps
Width                            : 624 pixels
Height                           : 464 pixels
Display aspect ratio             : 4:3
Frame rate                       : 25.000 fps
Resolution                       : 8 bits
Colorimetry                      : 4:2:0
Scan type                        : Progressive
Bits/(Pixel*Frame)               : 0.321
Stream size                      : 1.05 GiB (90%)
Writing library                  : XviD 1.2.0SMP (UTC 2006-01-08)

Audio
ID                               : 1
Format                           : AC-3
Format/Info                      : Audio Coding 3
Format_Settings_ModeExtension    : CM (complete main)
Codec ID                         : 2000
Duration                         : 1h 4mn
Bit rate mode                    : Constant
Bit rate                         : 256 Kbps
Channel(s)                       : 2 channels
Channel positions                : Front: L R
Sampling rate                    : 48.0 KHz
Stream size                      : 119 MiB (10%)
Alignment                        : Aligned on interleaves
Interleave, duration             : 96 ms (2.40 video frames)
Interleave, preload duration     : 96 ms

Size: 1.17GB ( 3 Parts RAR)

The album is currently available to download only with Premium account. To get a premium account, click here



#tags
The album code is : ODI168039

TRAMP - PUT | Naoya Matsuoka - 1990 TIME PASSING | Project A - Hot Love | Napalm Death ÃÂÂÆ | Keni Burke - Nothin' But Love LP - 1998 | , popsike , discogs , cdandlp , musicstack Various Artists "Re-Import (Guide Of The Japanese Music)" (1992) -Westcoast Rock- Various Artists "Love Stories 3" (1994) -Westcoast Rock- Various Artists "Love Stories 2" (1993) -Westcoast Rock- Various Artists "Love Stories" (1992) -Westcoast Rock- Roby Duke "Not The Same" (1992) - CCM / Westcoast Rock- America "Highway - 30 Years Of" (2000) -Folk Pop / Soft Rock / Westcoast Rock- The Cornelius Bumpus Quartet ‎"Beacon" (1983) -Contemporary Jazz- Boy Meets Girl ‎"Boy Meets Girl" (1985) - Westcoast Rock-