« Blue Giant - Blue Giant (2010)
Eurovision Song Contest - 1989 »
Eurovision Song Contest - 1988

Eurovision Song Contest - 1988

Videoclips Concerts Movies
• Year : 0
• On demand! (album available 128-320kbs)*    

0


Label

Album Info

Eurovision Song Contest - 1988


1. Beathoven "?u og ?eir (Sokrates)" Исландия
2. Tommy Korberg "Stad i ljus" Швеция
3. Boulevard "Nauravat silmat muistetaan" Финляндия
4. Scott Fitzgerald "Go" Великобритания
5. MFO "Sufi" Турция
6. La Decada Prodigiosa "La chica que yo quiero (Made in Spain)" Испания
7. Gerard Joling "Shangri-La" Нидерланды
8. Yardena Arazi "Ben Adam" Израиль
9. Celine Dion "Ne partez pas sans moi" Щвейцария
10. Jump The Gun "Take Him Home" Ирландия
11. Maxi & Chris Garden "Lied fur einen Freund" Германия
12. Wilfried "Lisa Mona Lisa" Австрия
13. Hot Eyes "Ka' du se hva' jeg sa'?" Дания
14. Afroditi Frida "Clown" Греция
15. Karoline Kruger "For var jord" Норвегия
16. Reynaert "Laissez briller le soleil" Бельгия
17. Lara Fabian "Croire" Люксембург
18. Luca Barbarossa "Vivo (Ti scrivo)" Италия
19. Gеrard Lenorman "Chanteur de charme" Франция
20. Dora "Voltarei" Португалия
21. Srebrna Krila "Mangup" Югославия


Audio: MPEG Audio 48000Hz stereo 384kbps [Mpeg-1]
Video: MPEG2 Video 640x480 29.97fps 9000kbps [Video]

General
Complete name : D:\Downloads\Eurovision 1988.mpg
Format : MPEG-PS
File size : 1.34 GiB
Duration : 1h 4mn
Overall bit rate : 2 981 Kbps
Writing library : © 1998-2010 Womble Multimedia, Inc. / MPEG Video Wizard DVD 5.0.0.114 (01/2010) / Aug 21 2010

Video
ID : 224 (0xE0)
Format : MPEG Video
Format version : Version 2
Format profile : Main@Main
Format settings, BVOP : Yes
Format settings, Matrix : Default
Format_Settings_GOP : M=3, N=18
Duration : 1h 4mn
Bit rate mode : Variable
Bit rate : 2 478 Kbps
Nominal bit rate : 9 000 Kbps
Width : 640 pixels
Height : 480 pixels
Display aspect ratio : 4:3
Frame rate : 29.970 fps
Resolution : 8 bits
Colorimetry : 4:2:0
Scan type : Progressive
Bits/(Pixel*Frame) : 0.269
Stream size : 1.12 GiB (83%)
Writing library : © 1998-2010 Womble Multimedia, Inc. / MPEG Video Wizard DVD 5.0.0.114 (01/2010) / Aug 21 2010

Audio
ID : 192 (0xC0)
Format : MPEG Audio
Format version : Version 1
Format profile : Layer 2
Duration : 1h 4mn
Bit rate mode : Constant
Bit rate : 384 Kbps
Channel(s) : 2 channels
Sampling rate : 48.0 KHz
Stream size : 177 MiB (13%)
Size: 1.37 GB ( 3 Parts RAR)


The album is currently available for download only with a Premium account. To get a premium account, click here



#tags
The album code is : ODI168038

Carl Cox - Global Sessions (17-05-2008) | Able Records | Black Eyed Peas - Hey Mama (2004) | Camelia Jordana - Camelia Jordana (2010) | ATC - Around The World (La La La La La) | , popsike , discogs , cdandlp , musicstack Twistedships - Essential Growth (2016) Atrium Carceri - Archives I-II (2016) Badger - One Live Badger 1973 (Lossless) (2007) Thrilos - Kingdom Of Dream (2016) Lossless Esperanto - Rock Orchestra (1973) Chem - Norma [EP] (2016) Logic System - Space Polyphony (1992) Doug MacLeod - Exactly Like This (2015) [HDTracks] Zipper - Zipper (1994) Sarah Vaughan - The Quintessence: New York-Paris-Chicago 1950-1960 (2014) Chris Norman - The Original Album II: Different Shades (2006) Chris Norman - The Original Album I: Some Hearts Are Diamonds (2006) Alain Caron - Rhythm'n'Jazz (1995) FLAC Chris Wells - 3 Beat (Feat. Charlie Wood) (2015) Rob Silvan & Fine Line "Leap Of Faith" (1996) -Soft Rock- Boy Meets Girl Music "The Wonderground" (2003) -Soft Rock- Various Artists "Re-Import (Guide Of The Japanese Music)" (1992) -Westcoast Rock- Various Artists "Love Stories 3" (1994) -Westcoast Rock- Various Artists "Love Stories 2" (1993) -Westcoast Rock- Various Artists "Love Stories" (1992) -Westcoast Rock- Roby Duke "Not The Same" (1992) - CCM / Westcoast Rock- America "Highway - 30 Years Of" (2000) -Folk Pop / Soft Rock / Westcoast Rock-

You would like to permanently remove ads and unlock benefits?


We display ads sparingly on website to help cover costs without interfering with the browsing experience.
Tired of advertising and pop-ups? Join Now on OdiMusic. Register on OdiMusic allows you to access to the minimum resources, minimum advertising (no pop-ups),
if you choose to subscribe for one of our plans after registration you can acces more than 1.000.000 Albums, Maxi, Cds, Vinyls releases inside! (80% on demand) (requests, informations, images, tracklists, reviews, ask for supports & much more!!!)