« Nguyen Le - Signature Edition ...
Lee Ritenour - Smoke ‘N’ M... »
Eurovision Song Contest - 1987

Eurovision Song Contest - 1987

Videoclips Concerts Movies
• Year : 0
• On demand! (album available 128-320kbs)*    

0


Label

Album Info

Eurovision Song Contest - 1987
Трэклист:
1 Kate Gulbrandsen - Mitt liv (Норвегия)
2 Datner and Kushnir - Shir habatlanim (Израиль)
3 Gary Lux - Nur noch Gefuhl (Австрия)
4 Halla Margaret - Haegt og hljott (Исландия)
5 Liliane Saint-Pierre - Soldiers of love (Бельгия)
6 Lotta Engberg - Boogaloo (Швеция)
7 Umberto Tozzi and Raf - Gente di mare (Италия)
8 Nevada - Neste barco a vela (Португалия)
9 Patricia Kraus - No estas solo (Испания)
10 Seyyal Tanner and Lokomotif - Sarkim sevgi ustune (Турция)
11 Bang - Stop! (Греция)
12 Marcha - Rechtop in de wind (Нидерланды)
13 Plastic Bertrand - Amour amour (Люксембург)
14 Rikki - Only the light (Великобритания)
15 Christine Minier - Les mots d’amour n’ont pas de dimanche (Франция)
16 Wind - Lass die Sonne in dein Herz (ФРГ)
17 Alexia - Aspro mavro (Кипр)
18 Vicky Rosti - Sata salamaa (Финляндия)
19 Anne-Catherine Herdorf and Bandjo - En lille melodi (Дания)
20 Джонни Логан - Hold me now (Ирландия)
21 Novi Fosili - Ja sam za ples (Югославия)
22 Carole Rich - Moitie moitie (Швейцария)



Video: Xvid 576x432 25.00fps [Stream 00]
Audio: Dolby AC3 48000Hz stereo 256kbps [Stream 01]

General
Complete name : D:\1987 - Brussel - Eurovision Song Contest.avi
Format : AVI
Format/Info : Audio Video Interleave
File size : 1.17 GiB
Duration : 1h 4mn
Overall bit rate : 2 592 Kbps
Writing application : VirtualDubMod 1.5.4.1 (build 2178/release)
Writing library : VirtualDubMod build 2178/release

Video
ID : 0
Format : MPEG-4 Visual
Format profile : Advanced Simple@L5
Format settings, BVOP : Yes
Format settings, QPel : No
Format settings, GMC : No warppoints
Format settings, Matrix : Custom
Codec ID : XVID
Codec ID/Hint : XviD
Duration : 1h 4mn
Bit rate : 2 329 Kbps
Width : 576 pixels
Height : 432 pixels
Display aspect ratio : 4:3
Frame rate : 25.000 fps
Resolution : 8 bits
Colorimetry : 4:2:0
Scan type : Progressive
Bits/(Pixel*Frame) : 0.374
Stream size : 1.05 GiB (90%)
Writing library : XviD 1.2.0SMP (UTC 2006-01-08)

Audio
ID : 1
Format : AC-3
Format/Info : Audio Coding 3
Format_Settings_ModeExtension : CM (complete main)
Codec ID : 2000
Duration : 1h 4mn
Bit rate mode : Constant
Bit rate : 256 Kbps
Channel(s) : 2 channels
Channel positions : Front: L R
Sampling rate : 48.0 KHz
Stream size : 119 MiB (10%)
Alignment : Aligned on interleaves
Interleave, duration : 96 ms (2.40 video frames)
Interleave, preload duration : 96 ms

Size: 1. 20 GB 3 parts RAR

The album is currently available for download only with a Premium account. To get a premium account, click here



#tags
The album code is : ODI167977

Florian Pellissier Quintet - Biches Bleues (2014) | Vox Angeli | G C - In The Night (Maxi 87') | 80's Party | The House Master Boyz And The Rude Boy Of House - House Nation (Maxi-Vinyl) 1986 | , popsike , discogs , cdandlp , musicstack Esperanto - Last Tango (1975) Esperanto - Danse Macabre (1974) Twistedships - Essential Growth (2016) Atrium Carceri - Archives I-II (2016) Badger - One Live Badger 1973 (Lossless) (2007) Thrilos - Kingdom Of Dream (2016) Lossless Logic System - Space Polyphony (1992) Doug MacLeod - Exactly Like This (2015) [HDTracks] Zipper - Zipper (1994) Sarah Vaughan - The Quintessence: New York-Paris-Chicago 1950-1960 (2014) Chris Norman - The Original Album II: Different Shades (2006) Chris Norman - The Original Album I: Some Hearts Are Diamonds (2006) Alain Caron - Rhythm'n'Jazz (1995) FLAC Chris Wells - 3 Beat (Feat. Charlie Wood) (2015) Rob Silvan & Fine Line "Leap Of Faith" (1996) -Soft Rock- Boy Meets Girl Music "The Wonderground" (2003) -Soft Rock- Various Artists "Re-Import (Guide Of The Japanese Music)" (1992) -Westcoast Rock- Various Artists "Love Stories 3" (1994) -Westcoast Rock- Various Artists "Love Stories 2" (1993) -Westcoast Rock- Various Artists "Love Stories" (1992) -Westcoast Rock- Roby Duke "Not The Same" (1992) - CCM / Westcoast Rock- America "Highway - 30 Years Of" (2000) -Folk Pop / Soft Rock / Westcoast Rock-

You would like to permanently remove ads and unlock benefits?


We display ads sparingly on website to help cover costs without interfering with the browsing experience.
Tired of advertising and pop-ups? Join Now on OdiMusic. Register on OdiMusic allows you to access to the minimum resources, minimum advertising (no pop-ups),
if you choose to subscribe for one of our plans after registration you can acces more than 1.000.000 Albums, Maxi, Cds, Vinyls releases inside! (80% on demand) (requests, informations, images, tracklists, reviews, ask for supports & much more!!!)