« Eurovision Song Contest - 1985
Charlie Haden - Best of Quarte... »
Eurovision Song Contest 1986

Eurovision Song Contest 1986

Videoclips Concerts Movies
• Year : 0
• On demand! (album available 128-320kbs)*    

0


Label

Album Info

Eurovision Song Contest 1986

’анЄ«Ёбв:
1. Sherisse Laurence - L’amour de ma vie (‹оЄбҐ¬ЎгаЈ)
2. Doris Dragovic - Zeljo moja (ћЈ®б« ўЁп)
3. Cocktail Chic - Europeennes (”а ­жЁп)
4. Ketil Stokkan - Romeo (Ќ®аўҐЈЁп)
5. Ryder - Runner in the night (‚Ґ«ЁЄ®ЎаЁв ­Ёп)
6. Icy - Gledibankinn (?б« ­¤Ёп)
7. Frizzle Sizzle - Alles heeft ritme (ЌЁ¤Ґа« ­¤л)
8. Klips ve Onlar - Halley (’гажЁп)
9. Cadillac - Valentino (?бЇ ­Ёп)
10. Daniela Simons - Pas pour moi (?ўҐ©ж аЁп)
11. Moti Galadi and Sarai Tzuriel Yavoh yom (?§а Ё«м)
12. Luv Bug You can count on me (?а« ­¤Ёп)
13. Sandra Kim - J’aime la vie (ЃҐ«мЈЁп)
14. Ingrid Peters - Uber die Brucke geh’n (”ђѓ)
15. Elpida - Tora zo (ЉЁЇа)
16. Timna Brauer - Die Zeit ist einsam (ЂўбваЁп)
17. Lasse Holm and Monica Tornell - E' de' det har du kallar karlek (?ўҐжЁп)
18. Lise Haavik and Trax - Du er fuld af logn („ ­Ёп)
19. Kari Kuivalainen - Paiva kahden ihmisen (”Ё­«п­¤Ёп)
20. Dora - Nao sejas mau para mim (Џ®авгЈ «Ёп)

Video: Xvid 624x464 25.00fps [Stream 00]
Audio: Dolby AC3 48000Hz stereo 256kbps [Stream 01]

General
Complete name : D:\Eurovision.Song.Contest.1986.avi
Format : AVI
Format/Info : Audio Video Interleave
File size : 1.17 GiB
Duration : 58mn 27s
Overall bit rate : 2 875 Kbps
Writing application : VirtualDubMod 1.5.4.1 (build 2178/release)
Writing library : VirtualDubMod build 2178/release

Video
ID : 0
Format : MPEG-4 Visual
Format profile : Advanced Simple@L5
Format settings, BVOP : Yes
Format settings, QPel : No
Format settings, GMC : No warppoints
Format settings, Matrix : Custom
Codec ID : XVID
Codec ID/Hint : XviD
Duration : 58mn 27s
Bit rate : 2 612 Kbps
Width : 624 pixels
Height : 464 pixels
Display aspect ratio : 4:3
Frame rate : 25.000 fps
Resolution : 8 bits
Colorimetry : 4:2:0
Scan type : Progressive
Bits/(Pixel*Frame) : 0.361
Stream size : 1.07 GiB (91%)
Writing library : XviD 1.2.0SMP (UTC 2006-01-08)

Audio
ID : 1
Format : AC-3
Format/Info : Audio Coding 3
Format_Settings_ModeExtension : CM (complete main)
Codec ID : 2000
Duration : 58mn 27s
Bit rate mode : Constant
Bit rate : 256 Kbps
Channel(s) : 2 channels
Channel positions : Front: L R
Sampling rate : 48.0 KHz
Stream size : 107 MiB (9%)
Alignment : Aligned on interleaves
Interleave, duration : 96 ms (2.40 video frames)
Interleave, preload duration : 96 ms

Size: 1. 20 GB ( 3 Parts RAR)

The album is currently available for download only with a Premium account. To get a premium account, click here



#tags
The album code is : ODI167936

005938 | Rappers On | Marcus Miller - Afrodeezia (2015) MP3 | Sjob Movement –1974 - A Move in the Right Direction (2009) | VA-Dance House Vol 3-2CD (2008) | , popsike , discogs , cdandlp , musicstack China - In The Middle Of The Night (1989) Rainbow - Can't Let You Go (1983) Survivor - The Search Is Over (1984) Blackmore's Night - Dancer and the Moon (2013) W.A.S.P. - Hold On To My Heart (1992) Yngwie Malmsteen - Carry On A Wayward Son (VIDEO) 1996 Cody Cooke and the Bayou Outlaws - Son of the South (2013) Terrence Brewer – The TB 3 - Setting the Standard, Vol. 4 (2016) VA - Chilling with Me (2015) Pink Floyd - Works (1983/1987) VA - Dubai Lounge (2015) Derrick Procell - Why I Choose To Sing The Blues (2016) Phil Woods & The Bill Charlap Trio - Voyage (2001) VA - Almost Weekend XIII (2015) Lava "Lava" (1980) -Westcoast Jazz- Giuffria "Giuffria" (1984) - Melodic Rock- Mark Free "Long Way From Love" (1993) -AOR / Soft Rock- Giorgio Moroder Featuring Joe Esposito "Solitary Men" (1983) -Disco / Soft Rock- Rob Silvan & Fine Line "Leap Of Faith" (1996) -Soft Rock- Boy Meets Girl Music "The Wonderground" (2003) -Soft Rock- Various Artists "Re-Import (Guide Of The Japanese Music)" (1992) -Westcoast Rock- Various Artists "Love Stories 3" (1994) -Westcoast Rock- Voyage - Voyage 3 - Complete LP Jean Adebambo - Feelings - Complete LP Bobby King & Terry Evans - Live And Let Live - Complete LP Sam Fan Thomas - Makassi - Complete LP Goddy Oku - One More Chance - Complete LP

You would like to permanently remove ads and unlock benefits?


We display ads sparingly on website to help cover costs without interfering with the browsing experience.
Tired of advertising and pop-ups? Join Now on OdiMusic. Register on OdiMusic allows you to access to the minimum resources, minimum advertising (no pop-ups),
if you choose to subscribe for one of our plans after registration you can acces more than 1.000.000 Albums, Maxi, Cds, Vinyls releases inside! (80% on demand) (requests, informations, images, tracklists, reviews, ask for supports & much more!!!)