Eurovision Song Contest - 1983 MP3/Flac

Eurovision Song Contest - 1983


1. Corinne Hermes - Si la vie est cadeau (Люксембург)
2. Ofra Haza - Hi (Израиль)
3. Carola Haggkvist - Framling (Швеция)
4. Danijel - Dzuli (Югославия)
5. Hoffmann und Hoffmann - Rucksicht (ФРГ)
6. Sweet Dreams - I’m never giving up (Великобритания)
7. Bernadette - Sing me a song (Нидерланды)
8. Guy Bonnet - Vivre (Франция)
9. Westend - Hurricane (Австрия)
10. Jahn Teigen - Do re mi (Норвегия)
11. Riccardo Fogli - Per Lucia (Италия)
12. Ami Aspelund - Fantasiaa (Финляндия)
13. Armando Gama - Esta balada que te dou (Португалия)
14. Christie - Mou les (Греция)
15. Mariella Farre - Io cosi non ci sto (Швейцария)
16. Stavros and Constantina - I agapi akoma zi (Кипр)
17. Gry Johansen - Kloden drejer (Дания)
18. Pas de Deux - Rendez-vous (Бельгия)
19. Cetin Alp and the Short Wave - Opera (Турция)
20. Remedios Amaya - Quien maneja mi barca (Испания)

Video: Xvid 480x368 25.00fps [Stream 00]
Audio: MPEG Audio Layer 3 48000Hz stereo 138kbps [Stream 01]

General
Complete name : D:\1983.Festival.de.Eurovision.VHSRip.avi
Format : AVI
Format/Info : Audio Video Interleave
File size : 699 MiB
Duration : 2h 56mn
Overall bit rate : 554 Kbps
Writing application : VirtualDubMod 1.5.4.1 (build 2178/release)
Writing library : VirtualDubMod build 2178/release

Video
ID : 0
Format : MPEG-4 Visual
Format profile : Advanced Simple@L5
Format settings, BVOP : Yes
Format settings, QPel : No
Format settings, GMC : No warppoints
Format settings, Matrix : Custom
Codec ID : XVID
Codec ID/Hint : XviD
Duration : 2h 56mn
Bit rate : 402 Kbps
Width : 480 pixels
Height : 368 pixels
Display aspect ratio : 4:3
Frame rate : 25.000 fps
Resolution : 8 bits
Colorimetry : 4:2:0
Scan type : Progressive
Bits/(Pixel*Frame) : 0.091
Stream size : 508 MiB (73%)
Writing library : XviD 1.0.2 (UTC 2004-08-29)

Audio
ID : 1
Format : MPEG Audio
Format version : Version 1
Format profile : Layer 3
Mode : Joint stereo
Format_Settings_ModeExtension : MS Stereo
Codec ID : 55
Codec ID/Hint : MP3
Duration : 2h 56mn
Bit rate mode : Variable
Bit rate : 139 Kbps
Nominal bit rate : 128 Kbps
Channel(s) : 2 channels
Sampling rate : 48.0 KHz
Stream size : 175 MiB (25%)
Alignment : Aligned on interleaves
Interleave, duration : 24 ms (0.60 video frame)
Interleave, preload duration : 132 ms
Writing library : LAME3.90.
Encoding settings : -m j -V 4 -q 2 -lowpass 17.6 --abr 128[/spoiler]

Size: 699 MB RAR 2 parts
This album(s) is currently available for download only with a Premium account. To get a premium account, click here