« VA - The Boat That Rocked [2CD...
Eurovision Song Contest - 1983 »
]Eurovision Song Contest - 1984

]Eurovision Song Contest - 1984

Videoclips Concerts Movies
• Year : 0
• On demand! (album available 128-320kbs)*    

0


Label

Album Info

]Eurovision Song Contest - 1984

Tracklist:

1. Herrey’s - Diggi-loo diggy-ley (Швеция)
2. Sophie Carle - 100 % d’amour (Люксембург)
3. Annick Thoumazeau - Autant d’amoureux que d'etoiles (Франция)
4. Bravo - Lady, lady (Испания)
5. Dollie de Luxe - Lenge leve livet (Норвегия)
6. Belle and the Devotions - Love games (Великобритания)
7. Andy Paul - Anna Mari-Elena (Кипр)
8. Jacques Zegers - Avanti la vie (Бельгия)
9. Linda Martin - Terminal '3' (Ирландия)
10. Hot Eyes - Det' lige det (Дания)
11. Maribelle - Ik hou van jou (Нидерланды)
12. Vlado and Isolda - Ciao amore (Югославия)
13. Anita - Einfach weg (Австрия)
14. Mary Roos - Aufrecht geh’n (ФРГ)
15. Bes Yil Once, On Yil Sonra - Halay (Турция)
16. Kirka - Hengaillaan (Финляндия)
17. Rainy Day - Welche Farbe hat der Sonnenschein (Швейцария)
18. Alice and Battiato - I treni di Tozeur (Италия)
19. Maria Guinot - Silencio e tanta gente (Португалия)


Video: Xvid 720x544 25.00fps [Stream 00]
Audio: Dolby AC3 48000Hz stereo 256kbps [Stream 01]


General
Complete name : D:\Eurovision 1984 .avi
Format : AVI
Format/Info : Audio Video Interleave
File size : 1.17 GiB
Duration : 54mn 42s
Overall bit rate : 3 069 Kbps
Writing application : VirtualDubMod 1.5.4.1 (build 2178/release)
Writing library : VirtualDubMod build 2178/release

Video
ID : 0
Format : MPEG-4 Visual
Format profile : Advanced Simple@L5
Format settings, BVOP : Yes
Format settings, QPel : No
Format settings, GMC : No warppoints
Format settings, Matrix : Custom
Codec ID : XVID
Codec ID/Hint : XviD
Duration : 54mn 42s
Bit rate : 2 807 Kbps
Width : 720 pixels
Height : 544 pixels
Display aspect ratio : 4:3
Frame rate : 25.000 fps
Resolution : 8 bits
Colorimetry : 4:2:0
Scan type : Progressive
Bits/(Pixel*Frame) : 0.287
Stream size : 1.07 GiB (91%)
Writing library : XviD 1.2.0SMP (UTC 2006-01-08)

Audio
ID : 1
Format : AC-3
Format/Info : Audio Coding 3
Format_Settings_ModeExtension : CM (complete main)
Codec ID : 2000
Duration : 54mn 42s
Bit rate mode : Constant
Bit rate : 256 Kbps
Channel(s) : 2 channels
Channel positions : Front: L R
Sampling rate : 48.0 KHz
Stream size : 100 MiB (8%)
Alignment : Aligned on interleaves
Interleave, duration : 96 ms (2.40 video frames)

Interleave, preload duration : 96 ms[/spoiler]
Size: 1. 20 Gb RAR (3 Parts)

The album is currently available for download only with a Premium account. To get a premium account, click here



#tags
The album code is : ODI167844

Miami Sound Machine - Miami Sound Machine (Espanish Version) LP - 1978 | D.D. Robinson – Magic Star - Single 12'' - 1987 | Dr.Alban - One Love (The Album-Second Edition) | Now That's What I Call Music 45 2013 | Crack The Sky | , popsike , discogs , cdandlp , musicstack Aaron Pritchett - Body Of Work: A Collection Of Hits (2016) Dracma – Limits (1994) Billy Ray Cyrus – Trail Of Tears (1996) Daft Punk - TRON: Legacy OST [Special Edition] 2CD (2010) Lossless + MP3 Vampyrsgard - Phantom Der Nacht (2015) Dracma – A Fine Stormy Weather (1996) Janis Joplin - Pearl (1970/2012) [HDtracks] VA - Soulful House Journey: Mixed & Selected by Reelsoul (2014) VA - Street King Presents Amsterdam 2016 (2016) Blue - Roulette (2013) Greg Howe - Ascend (1999) Sevine - Je grandis (2016) Roy Ayers - Mahogany Vibe (2004), 320 Kbps MSM Schmidt - Utopia (2015) Rob Silvan & Fine Line "Leap Of Faith" (1996) -Soft Rock- Boy Meets Girl Music "The Wonderground" (2003) -Soft Rock- Various Artists "Re-Import (Guide Of The Japanese Music)" (1992) -Westcoast Rock- Various Artists "Love Stories 3" (1994) -Westcoast Rock- Various Artists "Love Stories 2" (1993) -Westcoast Rock- Various Artists "Love Stories" (1992) -Westcoast Rock- Roby Duke "Not The Same" (1992) - CCM / Westcoast Rock- America "Highway - 30 Years Of" (2000) -Folk Pop / Soft Rock / Westcoast Rock- Voyage - Voyage 3 - Complete LP Jean Adebambo - Feelings - Complete LP Bobby King & Terry Evans - Live And Let Live - Complete LP Sam Fan Thomas - Makassi - Complete LP Goddy Oku - One More Chance - Complete LP

You would like to permanently remove ads and unlock benefits?


We display ads sparingly on website to help cover costs without interfering with the browsing experience.
Tired of advertising and pop-ups? Join Now on OdiMusic. Register on OdiMusic allows you to access to the minimum resources, minimum advertising (no pop-ups),
if you choose to subscribe for one of our plans after registration you can acces more than 1.000.000 Albums, Maxi, Cds, Vinyls releases inside! (80% on demand) (requests, informations, images, tracklists, reviews, ask for supports & much more!!!)