« Maxwell - Now (2000)
Kenny Barron Trio - Live At Br... »
Eurovision Song Contest - 1982

Eurovision Song Contest - 1982

Videoclips Concerts Movies
• Year : 0
• On demand! (album available 128-320kbs)*    

0


Label

Album Info

Eurovision Song Contest - 1982Eurovision Song Contest - 1982

Tracklist:
1 Doce - Bem-bom (Португалия)
2 Svetlana - Cours apres le temps (Люксембург)
3 Jahn Teigen and Anita Skorgan - Adieu (Норвегия)
4 Bardo - One step further (Великобритания)
5 Neco - Hani (Турция)
6 Kojo - Nuku pommiin (Финляндия)
7 Arlette Zola - Amour on t’aime (Швейцария)
8 Анна Висси - Mono i agapi (Кипр)
9 Chips - Dag efter dag (Швеция)
10 Mess Sonntag (Австрия)
11 Stella - Si tu aimes ma musique (Бельгия)
12 Lucia - El (Испания)
13 Brixx - Video-video (Дания)
14 Aska - Halo halo (Югославия)
15 Avi Toledano - Hora (Израиль)
16 Bill van Dijk - Jij en ik (Нидерланды)
17 The Duskeys - Here today, gone tomorrow (Ирландия)
18 Николь Ein bisschen Frieden (ФРГ)

Video: DivX 5 720x576 25.00fps [Stream 00]
Audio: MPEG Audio Layer 3 24000Hz stereo 56kbps [Stream 01]

General
Complete name : D:\1982-Festival.De.Eurovision\Eurovision Song Contest 1982 (2) (TVE).avi
Format : AVI
Format/Info : Audio Video Interleave
File size : 572 MiB
Duration : 54mn 29s
Overall bit rate : 1 467 Kbps
Writing library : VirtualDub build 18160/release

Video
ID : 0
Format : MPEG-4 Visual
Format settings, BVOP : Yes
Format settings, QPel : No
Format settings, GMC : No warppoints
Format settings, Matrix : Default (H.263)
Muxing mode : Packed bitstream
Codec ID : DX50
Codec ID/Hint : DivX 5
Duration : 54mn 29s
Bit rate : 1 401 Kbps
Width : 720 pixels
Height : 576 pixels
Display aspect ratio : 5:4
Frame rate : 25.000 fps
Standard : PAL
Resolution : 8 bits
Colorimetry : 4:2:0
Scan type : Progressive
Bits/(Pixel*Frame) : 0.135
Stream size : 546 MiB (96%)
Writing library : DivX 5.2.1 (DrDivX 106) (UTC 2004-09-08)

Audio
ID : 1
Format : MPEG Audio
Format version : Version 2
Format profile : Layer 3
Mode : Joint stereo
Format_Settings_ModeExtension : Intensity Stereo + MS Stereo
Codec ID : 55
Codec ID/Hint : MP3
Duration : 54mn 29s
Bit rate mode : Constant
Bit rate : 56.0 Kbps
Channel(s) : 2 channels
Sampling rate : 24.0 KHz
Stream size : 21.8 MiB (4%)
Alignment : Split accross interleaves
Interleave, duration : 40 ms (1.00 video frame)

Size: 1. 280 GB 3 Parts RAR,

The album is currently available for download only with a Premium account. To get a premium account, click here



#tags
The album code is : ODI167831


You would like to permanently remove ads and unlock benefits?


We display ads sparingly on website to help cover costs without interfering with the browsing experience.
Tired of advertising and pop-ups? Join Now on OdiMusic. Register on OdiMusic allows you to access to the minimum resources, minimum advertising (no pop-ups),
if you choose to subscribe for one of our plans after registration you can acces more than 1.000.000 Albums, Maxi, Cds, Vinyls releases inside! (80% on demand) (requests, informations, images, tracklists, reviews, ask for supports & much more!!!)