MATLO FUNK BLOG

« Steve Bender - We've Gotta Get...
Gay Classics Mega Mix - Vol. 2 »
FestivalBar 1986

FestivalBar 1986

Videoclips Concerts Movies
• Year : 0
On demand! (album available 320kbs)*    

Album Info

FestivalBar 1986FestivalBar 1986FestivalBar 1986

General
Complete name : E:\VIDEO_TS\VTS_01_1.VOB
Format : MPEG-PS
File size : 1 024 MiB
Duration : 19mn 21s
Overall bit rate : 7 399 Kbps

Video
ID : 224 (0xE0)
Format : MPEG Video
Format version : Version 2
Format profile : Main@Main
Format settings, BVOP : Yes
Format settings, Matrix : Default
Format_Settings_GOP : M=3, N=12
Duration : 19mn 21s
Bit rate mode : Constant
Bit rate : 6 849 Kbps
Nominal bit rate : 7 000 Kbps
Width : 720 pixels
Height : 576 pixels
Display aspect ratio : 4:3
Frame rate : 25.000 fps
Standard : PAL
Resolution : 8 bits
Colorimetry : 4:2:0
Scan type : Interlaced
Scan order : Top Field First
Bits/(Pixel*Frame) : 0.661
Stream size : 948 MiB (93%)

Audio
ID : 128 (0x80)
Format : AC-3
Format/Info : Audio Coding 3
Format_Settings_ModeExtension : CM (complete main)
Duration : 19mn 20s
Bit rate mode : Constant
Bit rate : 256 Kbps
Channel(s) : 2 channels
Channel positions : Front: L R
Sampling rate : 48.0 KHz
Stream size : 35.4 MiB (3%)


Audio: Dolby AC3 48000Hz 6ch 256kbps [AC-3]
Video: MPEG2 Video 720x576 (4:3) 25.00fps 7000kbps [Video]


DVD-1


01. Sabrina - Sexy girl
02. Sandy Marton - White storm in the jungle
03. Hong Kong syndicat - Too much
04. Sigue sigue sputtnik - 21st century boy
05. Sandra - Hi Hi Hi
06. Communards - Don't leave me this way
07. Den Harrow - Charleston
08. Alba - Jump and do it
09. Scotch - Mirage
10. Garbo - II FIume
11. Fiorella manoia - Sorvolando eilat
12. Blacktie - Take you for a ride
13. Ciao Fellini - Noche bachia
14. Carrara - Sos bandido
15. Meccano - Alle porte dell'est
16. Raff - Hard
17. Spagna - Easy lady
18. Sandra - Innocent love
19. Sandy Marton - Forbidden memories
20. Frankie Goes to Hollywood - Rage hard
21. Ivan Cattaneo - Na na na hei hei
22. Limahl - Love in your eyes
23. Baltimora - Juke box boy


Size: 4.20 GB ( 10 parts RAR - 9 parts X 500 mb. 1part 57 mb)
http://rapidshare.com/files/415597488/FS862.part01.rar
http://rapidshare.com/files/415597986/FS862.part02.rar
http://rapidshare.com/files/415597469/FS862.part03.rar
http://rapidshare.com/files/415602718/FS862.part04.rar
http://rapidshare.com/files/415607675/FS862.part05.rar
http://rapidshare.com/files/415603091/FS862.part06.rar
http://rapidshare.com/files/415607902/FS862.part07.rar
http://rapidshare.com/files/415607943/FS862.part08.rar
http://rapidshare.com/files/415612638/FS862.part09.rar
http://rapidshare.com/files/415608698/FS862.part10.rar


http://ifolder.ru/19062548
http://ifolder.ru/19062533
http://ifolder.ru/19062546
http://ifolder.ru/19062534
http://ifolder.ru/19064415
http://ifolder.ru/19064287
http://ifolder.ru/19064720
http://ifolder.ru/19064851
http://ifolder.ru/19064942
http://ifolder.ru/19064998


=============================

DVD-2


FestivalBar 1986FestivalBar 1986
General
Complete name : E:\VIDEO_TS\VTS_01_1.VOB
Format : MPEG-PS
File size : 1 024 MiB

Video
ID : 224 (0xE0)
Format : MPEG Video
Format version : Version 2
Format profile : Main@Main
Format settings, BVOP : Yes
Format settings, Matrix : Default
Format_Settings_GOP : M=3, N=12
Bit rate mode : Variable
Bit rate : 9 496 Kbps
Width : 720 pixels
Height : 576 pixels
Display aspect ratio : 4:3
Frame rate : 25.000 fps
Standard : PAL
Resolution : 8 bits
Colorimetry : 4:2:0
Scan type : Interlaced
Scan order : Top Field First
Bits/(Pixel*Frame) : 0.916

Audio
ID : 128 (0x80)
Format : AC-3
Format/Info : Audio Coding 3
Format_Settings_ModeExtension : CM (complete main)
Bit rate mode : Constant
Bit rate : 256 Kbps
Channel(s) : 2 channels
Channel positions : Front: L R
Sampling rate : 48.0 KHz
Video delay : -80ms

Audio: Dolby AC3 48000Hz 6ch 256kbps [AC-3]
Video: MPEG2 Video 720x576 (4:3) 25.00fps 9496kbps [Video]

01. Alphaville - Dance with me
02. Taffy - Once more
03. Tom Hooker - Looking for love
04. Erasure - Oh lamour
05. Bruce & Bongo - Geil
06. Samanta Fox - Touch me
07. F.R.David - Sahara night
08. Valerie Dore - Lacelot
09. Scialpi - Cry
10. Eddy Huntington - USSR
11. Righeira - Italians a Go-Go
12. Tracy Spancer - Run to me
13. Righeira - Vamous a la playa
14. Rose Laurens - Africa
15. Sandy Marton - Ok run
16. Gazebo - I like chopin
17. Raff - I dont wan't to loose
18. Righeira - L'estate sta finendo
19. Baltimora - Tarzan Boy


Size: 2. 5 GB ( 5 parts RAR - - 4X 500 mb + 1 X 150 mb)

You must buy a premium account before acces this area.

[hide][/hide]
(Ads... Download)


#tags
* - Not all (Some albums may be in 128 / 192 / 256 Kbs)