Festivalbar 1985 MP3/Flac

Festivalbar 1985Festivalbar 1985

1. Loredana Berte - Aqua / Banda Clandestina / Ragazzo Mio / Iris / Non Sono Una Signora / Sei Bellissima
2. Reds - In Your Eyes
3. Simply Red - Money's Too Tight
4. Claudio Simoneti - Phanomena / Sky Walker
5. Angelo Baiguera - Non Me Cercare
6. Delia Gualtiero - Di Quale Amore Di Quanto Amore
7. Kay Francis - Shadows In The Night
8. Cube - Performance
9. Celeste - Going Crazy
10. Bruno Lauzi - Piccola Donna
11. Novecento - Why Me
12. The Twins - Deep Within In My Heart
13. Raf - I Don't Wanna Lose You
14. Tipinifini - Fever
15. Taffy - Midnight Radio
16. Sandy Marton - Camel By Camel / Exotic & Erotic
17. Alba - Only Music Survive
18. Albert One - Heart On Fire
19. Baltimora - Tarzan Boy
20. Moti Special - Cold Days, Cold Nights
21. Fake - Brick
22. Ricardo Fogli - Dio Come Vorrei
23. Patty Pravo - Menu
24. Gruppo Italiano - Sole D'Agosto
25. Opus - Life Is Life
26. Time Bandits - Angels Road
27. Enrico Ruggeri - Poco Piu Di Niente



Audio: Dolby AC3 48000Hz 6ch 256kbps [AC-3]
Video: MPEG2 Video 704x576 (4:3) 25.00fps 9586kbps [Video]


General
Complete name : E:\VIDEO_TS\VTS_01_1.VOB
Format : MPEG-PS
File size : 1 024 MiB
Duration : 30mn 42s
Overall bit rate : 4 663 Kbps

Video
ID : 224 (0xE0)
Format : MPEG Video
Format version : Version 2
Format profile : Main@Main
Format settings, BVOP : Yes
Format settings, Matrix : Default
Format_Settings_GOP : M=3, N=12
Duration : 30mn 42s
Bit rate mode : Variable
Bit rate : 4 221 Kbps
Nominal bit rate : 9 586 Kbps
Width : 704 pixels
Height : 576 pixels
Display aspect ratio : 4:3
Frame rate : 25.000 fps
Standard : PAL
Resolution : 8 bits
Colorimetry : 4:2:0
Scan type : Interlaced
Scan order : Top Field First
Bits/(Pixel*Frame) : 0.416
Stream size : 927 MiB (91%)

Audio
ID : 128 (0x80)
Format : AC-3
Format/Info : Audio Coding 3
Format_Settings_ModeExtension : CM (complete main)
Duration : 30mn 41s
Bit rate mode : Constant
Bit rate : 256 Kbps
Channel(s) : 2 channels
Channel positions : Front: L R
Sampling rate : 48.0 KHz
Video delay : -80ms
Stream size : 56.2 MiB (5%)


Size: 4. 20 GB RAR ( 10 parts - 9 parts 500 mb + 1 part 100 mb)


This album(s) is currently available for download only with a Premium account. To get a premium account, click here