« TOUCH - signs & wonders - RARE...
Argentina - Baby, Don't You Br... »
Festivalbar 1985

Festivalbar 1985

Videoclips Concerts Movies
• Year : 0
• On demand! (album available 128-320kbs)*    

0


Label

Album Info

Festivalbar 1985Festivalbar 1985

1. Loredana Berte - Aqua / Banda Clandestina / Ragazzo Mio / Iris / Non Sono Una Signora / Sei Bellissima
2. Reds - In Your Eyes
3. Simply Red - Money's Too Tight
4. Claudio Simoneti - Phanomena / Sky Walker
5. Angelo Baiguera - Non Me Cercare
6. Delia Gualtiero - Di Quale Amore Di Quanto Amore
7. Kay Francis - Shadows In The Night
8. Cube - Performance
9. Celeste - Going Crazy
10. Bruno Lauzi - Piccola Donna
11. Novecento - Why Me
12. The Twins - Deep Within In My Heart
13. Raf - I Don't Wanna Lose You
14. Tipinifini - Fever
15. Taffy - Midnight Radio
16. Sandy Marton - Camel By Camel / Exotic & Erotic
17. Alba - Only Music Survive
18. Albert One - Heart On Fire
19. Baltimora - Tarzan Boy
20. Moti Special - Cold Days, Cold Nights
21. Fake - Brick
22. Ricardo Fogli - Dio Come Vorrei
23. Patty Pravo - Menu
24. Gruppo Italiano - Sole D'Agosto
25. Opus - Life Is Life
26. Time Bandits - Angels Road
27. Enrico Ruggeri - Poco Piu Di Niente



Audio: Dolby AC3 48000Hz 6ch 256kbps [AC-3]
Video: MPEG2 Video 704x576 (4:3) 25.00fps 9586kbps [Video]


General
Complete name : E:\VIDEO_TS\VTS_01_1.VOB
Format : MPEG-PS
File size : 1 024 MiB
Duration : 30mn 42s
Overall bit rate : 4 663 Kbps

Video
ID : 224 (0xE0)
Format : MPEG Video
Format version : Version 2
Format profile : Main@Main
Format settings, BVOP : Yes
Format settings, Matrix : Default
Format_Settings_GOP : M=3, N=12
Duration : 30mn 42s
Bit rate mode : Variable
Bit rate : 4 221 Kbps
Nominal bit rate : 9 586 Kbps
Width : 704 pixels
Height : 576 pixels
Display aspect ratio : 4:3
Frame rate : 25.000 fps
Standard : PAL
Resolution : 8 bits
Colorimetry : 4:2:0
Scan type : Interlaced
Scan order : Top Field First
Bits/(Pixel*Frame) : 0.416
Stream size : 927 MiB (91%)

Audio
ID : 128 (0x80)
Format : AC-3
Format/Info : Audio Coding 3
Format_Settings_ModeExtension : CM (complete main)
Duration : 30mn 41s
Bit rate mode : Constant
Bit rate : 256 Kbps
Channel(s) : 2 channels
Channel positions : Front: L R
Sampling rate : 48.0 KHz
Video delay : -80ms
Stream size : 56.2 MiB (5%)


Size: 4. 20 GB RAR ( 10 parts - 9 parts 500 mb + 1 part 100 mb)


The album is currently available for download only with a Premium account. To get a premium account, click here



#tags
The album code is : ODI164636

Arne Lamberth - Musik Vi Minns - 2002 | Leech ï¿ÂÃ | Datini moldova | THE 5 SATINS - SINGS THEIR GREATEST HITS | A. Human - Trees Sway (Original Mix) Wall Of Sound | , popsike , discogs , cdandlp , musicstack China - In The Middle Of The Night (1989) Rainbow - Can't Let You Go (1983) Survivor - The Search Is Over (1984) Blackmore's Night - Dancer and the Moon (2013) W.A.S.P. - Hold On To My Heart (1992) Yngwie Malmsteen - Carry On A Wayward Son (VIDEO) 1996 Cody Cooke and the Bayou Outlaws - Son of the South (2013) Terrence Brewer – The TB 3 - Setting the Standard, Vol. 4 (2016) VA - Chilling with Me (2015) Pink Floyd - Works (1983/1987) VA - Dubai Lounge (2015) Derrick Procell - Why I Choose To Sing The Blues (2016) Phil Woods & The Bill Charlap Trio - Voyage (2001) VA - Almost Weekend XIII (2015) Lava "Lava" (1980) -Westcoast Jazz- Giuffria "Giuffria" (1984) - Melodic Rock- Mark Free "Long Way From Love" (1993) -AOR / Soft Rock- Giorgio Moroder Featuring Joe Esposito "Solitary Men" (1983) -Disco / Soft Rock- Rob Silvan & Fine Line "Leap Of Faith" (1996) -Soft Rock- Boy Meets Girl Music "The Wonderground" (2003) -Soft Rock- Various Artists "Re-Import (Guide Of The Japanese Music)" (1992) -Westcoast Rock- Various Artists "Love Stories 3" (1994) -Westcoast Rock- Voyage - Voyage 3 - Complete LP Jean Adebambo - Feelings - Complete LP Bobby King & Terry Evans - Live And Let Live - Complete LP Sam Fan Thomas - Makassi - Complete LP Goddy Oku - One More Chance - Complete LP

You would like to permanently remove ads and unlock benefits?


We display ads sparingly on website to help cover costs without interfering with the browsing experience.
Tired of advertising and pop-ups? Join Now on OdiMusic. Register on OdiMusic allows you to access to the minimum resources, minimum advertising (no pop-ups),
if you choose to subscribe for one of our plans after registration you can acces more than 1.000.000 Albums, Maxi, Cds, Vinyls releases inside! (80% on demand) (requests, informations, images, tracklists, reviews, ask for supports & much more!!!)