« The Cranberries - 2010-03-14 -...
Dire Straits - 1991-09-30 - Ro... »
MOTГ–RHEAD 1980 Nottingham and 1988 Lausanne (DVDfull pro-shot)

MOTГ–RHEAD 1980 Nottingham and 1988 Lausanne (DVDfull pro-shot)

Videoclips Concerts Movies
• Year : 0
• On demand! (album available 128-320kbs)*    

0


Label

Album Info

alt

The "World-Wide-Premiere" first released on TUBE !!!
Another MEGA PROJECT TAGGED BY SNiFFY!!!!!!!!!

*********
MOTГ–RHEAD - (2x / Pro-Shot-Shows) - DVD-9
*********

1980-08-20 - Theatre Royal, Nottingham, UK & Interview with Lemmy

01 Overkill
02 Too Late Too Late
03 Shoot You In The Back
04 Step Down
05 Jailbait
06 Leaving Here
07 Metropolis
08 Train Kept A Rollin'
09 Bomber
10 Motorhead

***

1988-08-31 - Hot Point Festival, Lausanne, Switzerland

01.Built For Speed
02.Deaf Forever
03.Just 'Cos You'Ve Got The Power
04.No Class
05.Orgasmatron
06.Stone Deaf In The U.S.A.
07.Killed By Death
08.Overkill

***

DVD-Project created by SNiFFY
DVD-Source, Menu-Sound, Menu-Picture-Idea,
Bullshit-Talking to myself...
also by SNiFFY.

P.S.: Hello World, feel free to create a DVD-Cover!

...(Germany, May/2010)

***

Complete name : D:DownloadsVTS_01_1.VOB
Format : MPEG-PS
File size : 1 000 MiB
Duration : 16mn 34s
Overall bit rate : 8 434 Kbps
Writing library : encoded by TMPGEnc MPEG Editor Version. 1.0.1.59

Video
ID : 224 (0xE0)
Format : MPEG Video
Format version : Version 2
Format profile : Main@Main
Format settings, BVOP : Yes
Format settings, Matrix : Default
Duration : 16mn 34s
Bit rate mode : Variable
Bit rate : 7 715 Kbps
Nominal bit rate : 7 992 Kbps
Width : 720 pixels
Height : 480 pixels
Display aspect ratio : 4:3
Frame rate : 29.970 fps
Standard : NTSC
Resolution : 8 bits
Colorimetry : 4:2:0
Scan type : Interlaced
Scan order : Top Field First
Bits/(Pixel*Frame) : 0.745
Stream size : 915 MiB (91%)
Writing library : TMPGEnc MPEG Editor 1.0.1.59

Audio
ID : 192 (0xC0)
Format : MPEG Audio
Format version : Version 1
Format profile : Layer 2
Duration : 16mn 34s
Bit rate mode : Constant
Bit rate : 384 Kbps
Channel(s) : 2 channels
Sampling rate : 48.0 KHz
Stream size : 45.5 MiB (5%)

::: RAPIDSHARE ::: MEGAUPLOAD :::


#tags
The album code is : ODI159590

Nikita Warren - Touch Me | Claude Bolling Big Band - Cinemadreams (1996) | Nor Cold - Nor Cold (2013) | Edit Select | Frank Schöbel | , popsike , discogs , cdandlp , musicstack Here Come The Mummies - Underground (2016) Hardbone - Tailor-Made (2016) Lossless + MP3 Albrecht, Roley & Moore - Starlighter (1978) Roger Waters with Eric Clapton - Lunatic Rave (1984) (Lossless + Mp3) High Fashion - Make Up Your Mind (1983) (Lossless) VA - Ministry of Sound: I Love House (2015) (Lossless) VA - Defected In The House Ibiza 2016 (2016) Kane Brown - Kane Brown (2016) The Silent Comedy - Common Faults (2010) Harmonica Shah - Live At The Cove with Jack De Keyzer (2011) Lossless Pinnacle - What Would Life Be (2016) Melvin Rhyne - Boss Organ (1994) Gyllene Tider - Kompakta Tider (1990) Stompin' Tom Connors - Sings Canadian History (2001) Rob Silvan & Fine Line "Leap Of Faith" (1996) -Soft Rock- Boy Meets Girl Music "The Wonderground" (2003) -Soft Rock- Various Artists "Re-Import (Guide Of The Japanese Music)" (1992) -Westcoast Rock- Various Artists "Love Stories 3" (1994) -Westcoast Rock- Various Artists "Love Stories 2" (1993) -Westcoast Rock- Various Artists "Love Stories" (1992) -Westcoast Rock- Roby Duke "Not The Same" (1992) - CCM / Westcoast Rock- America "Highway - 30 Years Of" (2000) -Folk Pop / Soft Rock / Westcoast Rock- Jean Adebambo - Feelings - Complete LP Bobby King & Terry Evans - Live And Let Live - Complete LP Sam Fan Thomas - Makassi - Complete LP Goddy Oku - One More Chance - Complete LP Richard Tee - Natural Ingredients - Complete LP

You would like to permanently remove ads and unlock benefits?


We display ads sparingly on website to help cover costs without interfering with the browsing experience.
Tired of advertising and pop-ups? Join Now on OdiMusic. Register on OdiMusic allows you to access to the minimum resources, minimum advertising (no pop-ups),
if you choose to subscribe for one of our plans after registration you can acces more than 1.000.000 Albums, Maxi, Cds, Vinyls releases inside! (80% on demand) (requests, informations, images, tracklists, reviews, ask for supports & much more!!!)